  0
SECTION
  2
HEADER
  9
$ACADVER
  1
AC1014
  9
$ACADMAINTVER
 70
     9
  9
$DWGCODEPAGE
  3
ANSI_1252
  9
$INSBASE
 10
0.0
 20
0.0
 30
0.0
  9
$EXTMIN
 10
-0.3802095202547726
 20
5.828702586957892
 30
0.0
  9
$EXTMAX
 10
12.49451967141409
 20
9.623030454789372
 30
0.0
  9
$LIMMIN
 10
0.0
 20
0.0
  9
$LIMMAX
 10
12.0
 20
9.0
  9
$ORTHOMODE
 70
     0
  9
$REGENMODE
 70
     1
  9
$FILLMODE
 70
     1
  9
$QTEXTMODE
 70
     0
  9
$MIRRTEXT
 70
     1
  9
$DRAGMODE
 70
     2
  9
$LTSCALE
 40
1.0
  9
$OSMODE
 70
     0
  9
$ATTMODE
 70
     1
  9
$TEXTSIZE
 40
0.2
  9
$TRACEWID
 40
0.05
  9
$TEXTSTYLE
  7
STANDARD
  9
$CLAYER
  8
0
  9
$CELTYPE
  6
BYLAYER
  9
$CECOLOR
 62
   256
  9
$CELTSCALE
 40
1.0
  9
$DELOBJ
 70
     1
  9
$DISPSILH
 70
     0
  9
$DIMSCALE
 40
1.0
  9
$DIMASZ
 40
0.18
  9
$DIMEXO
 40
0.0625
  9
$DIMDLI
 40
0.38
  9
$DIMRND
 40
0.0
  9
$DIMDLE
 40
0.0
  9
$DIMEXE
 40
0.18
  9
$DIMTP
 40
0.0
  9
$DIMTM
 40
0.0
  9
$DIMTXT
 40
0.18
  9
$DIMCEN
 40
0.09
  9
$DIMTSZ
 40
0.0
  9
$DIMTOL
 70
     0
  9
$DIMLIM
 70
     0
  9
$DIMTIH
 70
     1
  9
$DIMTOH
 70
     1
  9
$DIMSE1
 70
     0
  9
$DIMSE2
 70
     0
  9
$DIMTAD
 70
     0
  9
$DIMZIN
 70
     0
  9
$DIMBLK
  1

  9
$DIMASO
 70
     1
  9
$DIMSHO
 70
     1
  9
$DIMPOST
  1

  9
$DIMAPOST
  1

  9
$DIMALT
 70
     0
  9
$DIMALTD
 70
     2
  9
$DIMALTF
 40
25.4
  9
$DIMLFAC
 40
1.0
  9
$DIMTOFL
 70
     0
  9
$DIMTVP
 40
0.0
  9
$DIMTIX
 70
     0
  9
$DIMSOXD
 70
     0
  9
$DIMSAH
 70
     0
  9
$DIMBLK1
  1

  9
$DIMBLK2
  1

  9
$DIMSTYLE
  2
STANDARD
  9
$DIMCLRD
 70
     0
  9
$DIMCLRE
 70
     0
  9
$DIMCLRT
 70
     0
  9
$DIMTFAC
 40
1.0
  9
$DIMGAP
 40
0.09
  9
$DIMJUST
 70
     0
  9
$DIMSD1
 70
     0
  9
$DIMSD2
 70
     0
  9
$DIMTOLJ
 70
     1
  9
$DIMTZIN
 70
     0
  9
$DIMALTZ
 70
     0
  9
$DIMALTTZ
 70
     0
  9
$DIMFIT
 70
     3
  9
$DIMUPT
 70
     0
  9
$DIMUNIT
 70
     2
  9
$DIMDEC
 70
     2
  9
$DIMTDEC
 70
     2
  9
$DIMALTU
 70
     2
  9
$DIMALTTD
 70
     2
  9
$DIMTXSTY
  7
STANDARD
  9
$DIMAUNIT
 70
     0
  9
$LUNITS
 70
     2
  9
$LUPREC
 70
     4
  9
$SKETCHINC
 40
0.1
  9
$FILLETRAD
 40
0.5
  9
$AUNITS
 70
     0
  9
$AUPREC
 70
     0
  9
$MENU
  1
.
  9
$ELEVATION
 40
0.0
  9
$PELEVATION
 40
0.0
  9
$THICKNESS
 40
0.0
  9
$LIMCHECK
 70
     0
  9
$BLIPMODE
 70
     0
  9
$CHAMFERA
 40
0.5
  9
$CHAMFERB
 40
0.5
  9
$CHAMFERC
 40
1.0
  9
$CHAMFERD
 40
0.0
  9
$SKPOLY
 70
     0
  9
$TDCREATE
 40
2452317.331320833
  9
$TDUPDATE
 40
2452642.589899768
  9
$TDINDWG
 40
0.0013655093
  9
$TDUSRTIMER
 40
0.0013655093
  9
$USRTIMER
 70
     1
  9
$ANGBASE
 50
0.0
  9
$ANGDIR
 70
     0
  9
$PDMODE
 70
     0
  9
$PDSIZE
 40
0.0
  9
$PLINEWID
 40
0.0
  9
$COORDS
 70
     1
  9
$SPLFRAME
 70
     0
  9
$SPLINETYPE
 70
     6
  9
$SPLINESEGS
 70
     8
  9
$ATTDIA
 70
     1
  9
$ATTREQ
 70
     1
  9
$HANDLING
 70
-16383
  9
$HANDSEED
  5
26D
  9
$SURFTAB1
 70
     6
  9
$SURFTAB2
 70
     6
  9
$SURFTYPE
 70
     6
  9
$SURFU
 70
     6
  9
$SURFV
 70
     6
  9
$UCSNAME
  2

  9
$UCSORG
 10
0.0
 20
0.0
 30
0.0
  9
$UCSXDIR
 10
1.0
 20
0.0
 30
0.0
  9
$UCSYDIR
 10
0.0
 20
1.0
 30
0.0
  9
$PUCSNAME
  2

  9
$PUCSORG
 10
0.0
 20
0.0
 30
0.0
  9
$PUCSXDIR
 10
1.0
 20
0.0
 30
0.0
  9
$PUCSYDIR
 10
0.0
 20
1.0
 30
0.0
  9
$USERI1
 70
     0
  9
$USERI2
 70
     0
  9
$USERI3
 70
     0
  9
$USERI4
 70
     0
  9
$USERI5
 70
     0
  9
$USERR1
 40
0.0
  9
$USERR2
 40
0.0
  9
$USERR3
 40
0.0
  9
$USERR4
 40
0.0
  9
$USERR5
 40
0.0
  9
$WORLDVIEW
 70
     1
  9
$SHADEDGE
 70
     3
  9
$SHADEDIF
 70
    70
  9
$TILEMODE
 70
     1
  9
$MAXACTVP
 70
    64
  9
$PINSBASE
 10
0.0
 20
0.0
 30
0.0
  9
$PLIMCHECK
 70
     0
  9
$PEXTMIN
 10
1.000000000000000E+20
 20
1.000000000000000E+20
 30
1.000000000000000E+20
  9
$PEXTMAX
 10
-1.000000000000000E+20
 20
-1.000000000000000E+20
 30
-1.000000000000000E+20
  9
$PLIMMIN
 10
0.0
 20
0.0
  9
$PLIMMAX
 10
12.0
 20
9.0
  9
$UNITMODE
 70
     0
  9
$VISRETAIN
 70
     1
  9
$PLINEGEN
 70
     0
  9
$PSLTSCALE
 70
     1
  9
$TREEDEPTH
 70
  3020
  9
$PICKSTYLE
 70
     1
  9
$CMLSTYLE
  2
STANDARD
  9
$CMLJUST
 70
     0
  9
$CMLSCALE
 40
1.0
  9
$PROXYGRAPHICS
 70
     1
  9
$MEASUREMENT
 70
     0
  0
ENDSEC
  0
SECTION
  2
CLASSES
  0
CLASS
  1
ACDBDICTIONARYWDFLT
  2
AcDbDictionaryWithDefault
  3
AutoCAD 2000
 90
        0
280
     0
281
     0
  0
CLASS
  1
ACDBPLACEHOLDER
  2
AcDbPlaceHolder
  3
AutoCAD 2000
 90
        0
280
     0
281
     0
  0
CLASS
  1
LAYOUT
  2
AcDbLayout
  3
AutoCAD 2000
 90
        0
280
     0
281
     0
  0
CLASS
  1
LONG_TRANSACTION
  2
AcDbLongTransaction
  3
AutoCAD 2000
 90
        0
280
     0
281
     0
  0
CLASS
  1
LWPOLYLINE
  2
AcDbPolyline
  3
AutoCAD 2000
 90
        0
280
     0
281
     1
  0
CLASS
  1
HATCH
  2
AcDbHatch
  3
AutoCAD 2000
 90
        0
280
     0
281
     1
  0
CLASS
  1
XRECORD
  2
AcDbXrecord
  3
AutoCAD 2000
 90
        0
280
     0
281
     0
  0
ENDSEC
  0
SECTION
  2
TABLES
  0
TABLE
  2
VPORT
  5
8
330
0
100
AcDbSymbolTable
 70
     3
  0
VPORT
  5
246
330
8
100
AcDbSymbolTableRecord
100
AcDbViewportTableRecord
  2
*ACTIVE
 70
     0
 10
0.0
 20
0.0
 11
1.0
 21
1.0
 12
6.179556821638033
 22
6.86630291242591
 13
0.0
 23
0.0
 14
0.5
 24
0.5
 15
0.5
 25
0.5
 16
0.0
 26
0.0
 36
1.0
 17
0.0
 27
0.0
 37
0.0
 40
11.32551919264983
 41
1.462515883100381
 42
50.0
 43
0.0
 44
0.0
 50
0.0
 51
0.0
 71
     0
 72
   100
 73
     1
 74
     3
 75
     0
 76
     0
 77
     0
 78
     0
  0
ENDTAB
  0
TABLE
  2
LTYPE
  5
5
330
0
100
AcDbSymbolTable
 70
     1
  0
LTYPE
  5
14
330
5
100
AcDbSymbolTableRecord
100
AcDbLinetypeTableRecord
  2
BYBLOCK
 70
     0
  3

 72
    65
 73
     0
 40
0.0
  0
LTYPE
  5
15
330
5
100
AcDbSymbolTableRecord
100
AcDbLinetypeTableRecord
  2
BYLAYER
 70
     0
  3

 72
    65
 73
     0
 40
0.0
  0
LTYPE
  5
16
330
5
100
AcDbSymbolTableRecord
100
AcDbLinetypeTableRecord
  2
CONTINUOUS
 70
     0
  3
Solid line
 72
    65
 73
     0
 40
0.0
  0
ENDTAB
  0
TABLE
  2
LAYER
  5
2
330
0
100
AcDbSymbolTable
 70
     5
  0
LAYER
  5
10
330
2
100
AcDbSymbolTableRecord
100
AcDbLayerTableRecord
  2
0
 70
     0
 62
     7
  6
CONTINUOUS
  0
LAYER
  5
34
330
2
100
AcDbSymbolTableRecord
100
AcDbLayerTableRecord
  2
L
 70
     0
 62
     7
  6
CONTINUOUS
  0
LAYER
  5
45
330
2
100
AcDbSymbolTableRecord
100
AcDbLayerTableRecord
  2
DEFPOINTS
 70
     0
 62
     7
  6
CONTINUOUS
  0
LAYER
  5
88
330
2
100
AcDbSymbolTableRecord
100
AcDbLayerTableRecord
  2
TX
 70
     0
 62
   150
  6
CONTINUOUS
  0
LAYER
  5
B5
330
2
100
AcDbSymbolTableRecord
100
AcDbLayerTableRecord
  2
MAIN
 70
     0
 62
     7
  6
CONTINUOUS
  0
ENDTAB
  0
TABLE
  2
STYLE
  5
3
330
0
100
AcDbSymbolTable
 70
     3
  0
STYLE
  5
11
330
3
100
AcDbSymbolTableRecord
100
AcDbTextStyleTableRecord
  2
STANDARD
 70
     0
 40
0.0
 41
1.0
 50
0.0
 71
     0
 42
0.2
  3
txt
  4

  0
STYLE
  5
35
330
3
100
AcDbSymbolTableRecord
100
AcDbTextStyleTableRecord
  2
REG
 70
     0
 40
0.0
 41
1.0
 50
0.0
 71
     0
 42
0.09375
  3
E:\R13\com\fonts\ARCHITXT.SHX
  4

  0
STYLE
  5
36
330
3
100
AcDbSymbolTableRecord
100
AcDbTextStyleTableRecord
  2
DIMTXT
 70
     0
 40
0.0
 41
1.0
 50
0.0
 71
     0
 42
1.125
  3
archt.shx
  4

  0
ENDTAB
  0
TABLE
  2
VIEW
  5
6
330
0
100
AcDbSymbolTable
 70
     0
  0
ENDTAB
  0
TABLE
  2
UCS
  5
7
330
0
100
AcDbSymbolTable
 70
     0
  0
ENDTAB
  0
TABLE
  2
APPID
  5
9
330
0
100
AcDbSymbolTable
 70
     1
  0
APPID
  5
12
330
9
100
AcDbSymbolTableRecord
100
AcDbRegAppTableRecord
  2
ACAD
 70
     0
  0
ENDTAB
  0
TABLE
  2
DIMSTYLE
  5
A
330
0
100
AcDbSymbolTable
 70
     6
  0
DIMSTYLE
105
27
102
{ACAD_REACTORS
330
C2
330
D0
102
}
330
A
100
AcDbSymbolTableRecord
100
AcDbDimStyleTableRecord
  2
STANDARD
 70
     0
  3

  4

  5

  6

  7

 40
1.0
 41
0.18
 42
0.0625
 43
0.38
 44
0.18
 45
0.0
 46
0.0
 47
0.0
 48
0.0
140
0.18
141
0.09
142
0.0
143
25.4
144
1.0
145
0.0
146
1.0
147
0.09
 71
     0
 72
     0
 73
     1
 74
     1
 75
     0
 76
     0
 77
     0
 78
     0
170
     0
171
     2
172
     0
173
     0
174
     0
175
     0
176
     0
177
     0
178
     0
270
     2
271
     2
272
     2
273
     2
274
     2
340
11
275
     0
280
     0
281
     0
282
     0
283
     1
284
     0
285
     0
286
     0
287
     3
288
     0
  0
DIMSTYLE
105
37
330
A
100
AcDbSymbolTableRecord
100
AcDbDimStyleTableRecord
  2
1
 70
     0
  3

  4

  5

  6

  7

 40
1.0
 41
1.125
 42
0.5
 43
0.375
 44
1.19921875
 45
0.0
 46
0.5
 47
0.0
 48
0.0
140
1.125
141
0.125
142
0.0
143
25.4
144
1.0
145
0.0
146
0.8
147
0.5625
 71
     0
 72
     0
 73
     0
 74
     0
 75
     0
 76
     0
 77
     1
 78
     3
170
     0
171
     2
172
     1
173
     0
174
     1
175
     0
176
   133
177
   133
178
   150
270
     2
271
     3
272
     3
273
     2
274
     2
340
36
275
     0
280
     0
281
     0
282
     0
283
     1
284
     0
285
     0
286
     0
287
     4
288
     0
  0
DIMSTYLE
105
38
330
A
100
AcDbSymbolTableRecord
100
AcDbDimStyleTableRecord
  2
1$2
 70
     0
  3

  4

  5
DOTSMALL
  6

  7

 40
1.0
 41
1.5
 42
0.5
 43
0.375
 44
1.19921875
 45
0.0
 46
0.5
 47
0.0
 48
0.0
140
0.75
141
0.125
142
0.0
143
25.4
144
1.0
145
0.0
146
0.8
147
0.5625
 71
     0
 72
     0
 73
     0
 74
     0
 75
     0
 76
     0
 77
     1
 78
     3
170
     0
171
     2
172
     1
173
     0
174
     1
175
     0
176
   133
177
   133
178
   150
270
     2
271
     3
272
     3
273
     2
274
     2
340
36
275
     0
280
     0
281
     0
282
     0
283
     1
284
     0
285
     0
286
     0
287
     4
288
     0
  0
DIMSTYLE
105
39
330
A
100
AcDbSymbolTableRecord
100
AcDbDimStyleTableRecord
  2
1$4
 70
     0
  3

  4

  5

  6

  7
DOTSMALL
 40
1.0
 41
1.5
 42
0.5
 43
0.375
 44
1.19921875
 45
0.0
 46
0.5
 47
0.0
 48
0.0
140
0.75
141
0.125
142
0.0
143
25.4
144
1.0
145
0.0
146
0.8
147
0.5625
 71
     0
 72
     0
 73
     0
 74
     0
 75
     0
 76
     0
 77
     1
 78
     3
170
     0
171
     2
172
     1
173
     1
174
     1
175
     0
176
   133
177
   133
178
   150
270
     2
271
     3
272
     3
273
     2
274
     2
340
36
275
     0
280
     0
281
     0
282
     0
283
     1
284
     0
285
     0
286
     0
287
     4
288
     0
  0
DIMSTYLE
105
3A
330
A
100
AcDbSymbolTableRecord
100
AcDbDimStyleTableRecord
  2
1$3
 70
     0
  3

  4

  5
DOTSMALL
  6

  7

 40
1.0
 41
1.5
 42
0.5
 43
0.375
 44
1.19921875
 45
0.0
 46
0.5
 47
0.0
 48
0.0
140
0.75
141
0.125
142
0.0
143
25.4
144
1.0
145
0.0
146
0.8
147
0.5625
 71
     0
 72
     0
 73
     0
 74
     0
 75
     0
 76
     0
 77
     1
 78
     3
170
     0
171
     2
172
     1
173
     0
174
     1
175
     0
176
   133
177
   133
178
   150
270
     2
271
     3
272
     3
273
     2
274
     2
340
36
275
     0
280
     0
281
     0
282
     0
283
     1
284
     0
285
     0
286
     0
287
     4
288
     0
  0
DIMSTYLE
105
3B
330
A
100
AcDbSymbolTableRecord
100
AcDbDimStyleTableRecord
  2
1$7
 70
     0
  3

  4

  5

  6

  7

 40
1.0
 41
1.0
 42
0.5
 43
0.375
 44
1.19921875
 45
0.0
 46
0.5
 47
0.0
 48
0.0
140
0.75
141
0.125
142
0.0
143
25.4
144
1.0
145
0.0
146
0.8
147
0.5625
 71
     0
 72
     0
 73
     0
 74
     0
 75
     0
 76
     0
 77
     1
 78
     3
170
     0
171
     2
172
     1
173
     0
174
     1
175
     0
176
   133
177
   133
178
   150
270
     2
271
     3
272
     3
273
     2
274
     2
340
36
275
     0
280
     0
281
     0
282
     0
283
     1
284
     0
285
     0
286
     0
287
     4
288
     0
  0
ENDTAB
  0
TABLE
  2
BLOCK_RECORD
  5
1
330
0
100
AcDbSymbolTable
 70
     5
  0
BLOCK_RECORD
  5
1F
102
{ACAD_XDICTIONARY
360
269
102
}
330
1
100
AcDbSymbolTableRecord
100
AcDbBlockTableRecord
  2
*MODEL_SPACE
  0
BLOCK_RECORD
  5
1B
102
{ACAD_XDICTIONARY
360
267
102
}
330
1
100
AcDbSymbolTableRecord
100
AcDbBlockTableRecord
  2
*PAPER_SPACE
  0
BLOCK_RECORD
  5
2B
330
1
100
AcDbSymbolTableRecord
100
AcDbBlockTableRecord
  2
_DOT
  0
BLOCK_RECORD
  5
30
330
1
100
AcDbSymbolTableRecord
100
AcDbBlockTableRecord
  2
_DOTSMALL
  0
BLOCK_RECORD
  5
C3
330
1
100
AcDbSymbolTableRecord
100
AcDbBlockTableRecord
  2
*D3
  0
BLOCK_RECORD
  5
D1
330
1
100
AcDbSymbolTableRecord
100
AcDbBlockTableRecord
  2
*D4
  0
ENDTAB
  0
ENDSEC
  0
SECTION
  2
BLOCKS
  0
BLOCK
  5
20
330
1F
100
AcDbEntity
  8
0
100
AcDbBlockBegin
  2
*MODEL_SPACE
 70
     0
 10
0.0
 20
0.0
 30
0.0
  3
*MODEL_SPACE
  1

  0
ENDBLK
  5
21
330
1F
100
AcDbEntity
  8
0
100
AcDbBlockEnd
  0
BLOCK
  5
1C
330
1B
100
AcDbEntity
 67
     1
  8
0
100
AcDbBlockBegin
  2
*PAPER_SPACE
 70
     0
 10
0.0
 20
0.0
 30
0.0
  3
*PAPER_SPACE
  1

  0
ENDBLK
  5
1D
330
1B
100
AcDbEntity
 67
     1
  8
0
100
AcDbBlockEnd
  0
BLOCK
  5
2E
330
2B
100
AcDbEntity
  8
0
100
AcDbBlockBegin
  2
_DOT
 70
     0
 10
0.0
 20
0.0
 30
0.0
  3
_DOT
  1

  0
LWPOLYLINE
  5
2C
330
2B
100
AcDbEntity
  8
L
 62
     0
100
AcDbPolyline
 90
        2
 70
     1
 43
0.5
 10
-0.25
 20
0.0
 42
1.0
 10
0.25
 20
0.0
 42
1.0
  0
LINE
  5
2D
330
2B
100
AcDbEntity
  8
L
 62
     0
100
AcDbLine
 10
-0.5
 20
0.0
 30
0.0
 11
-1.0
 21
0.0
 31
0.0
  0
ENDBLK
  5
2F
330
2B
100
AcDbEntity
  8
0
100
AcDbBlockEnd
  0
BLOCK
  5
32
330
30
100
AcDbEntity
  8
0
 48
0.116666
100
AcDbBlockBegin
  2
_DOTSMALL
 70
     0
 10
0.0
 20
0.0
 30
0.0
  3
_DOTSMALL
  1

  0
LWPOLYLINE
  5
31
330
30
100
AcDbEntity
  8
0
  6
BYBLOCK
 62
     0
100
AcDbPolyline
 90
        2
 70
     1
 43
0.5
 10
-0.0625
 20
0.0
 42
1.0
 10
0.0625
 20
0.0
 42
1.0
  0
ENDBLK
  5
33
330
30
100
AcDbEntity
  8
0
 48
0.116666
100
AcDbBlockEnd
  0
BLOCK
  5
CE
330
C3
100
AcDbEntity
  8
0
100
AcDbBlockBegin
  2
*D3
 70
     1
 10
0.0
 20
0.0
 30
0.0
  3
*D3
  1

  0
LINE
  5
C4
330
C3
100
AcDbEntity
  8
0
 62
     0
100
AcDbLine
 10
0.4903775357905325
 20
8.748286405971899
 30
0.0
 11
0.4903775357905326
 21
9.623030454789372
 31
0.0
  0
LINE
  5
C5
330
C3
100
AcDbEntity
  8
0
 62
     0
100
AcDbLine
 10
12.49037753579053
 20
8.748286405971899
 30
0.0
 11
12.49037753579053
 21
9.623030454789372
 31
0.0
  0
LINE
  5
C6
330
C3
100
AcDbEntity
  8
0
 62
     0
100
AcDbLine
 10
0.6703775357905326
 20
9.443030454789372
 30
0.0
 11
6.100377535790532
 21
9.443030454789372
 31
0.0
  0
LINE
  5
C7
330
C3
100
AcDbEntity
  8
0
 62
     0
100
AcDbLine
 10
12.31037753579053
 20
9.443030454789372
 30
0.0
 11
6.880377535790532
 21
9.443030454789372
 31
0.0
  0
SOLID
  5
C8
330
C3
100
AcDbEntity
  8
0
 62
     0
100
AcDbTrace
 10
0.6703775357905326
 20
9.473030454789372
 30
0.0
 11
0.6703775357905326
 21
9.413030454789373
 31
0.0
 12
0.4903775357905326
 22
9.443030454789372
 32
0.0
 13
0.4903775357905326
 23
9.443030454789372
 33
0.0
  0
SOLID
  5
C9
330
C3
100
AcDbEntity
  8
0
 62
     0
100
AcDbTrace
 10
12.31037753579053
 20
9.473030454789372
 30
0.0
 11
12.31037753579053
 21
9.413030454789373
 31
0.0
 12
12.49037753579053
 22
9.443030454789372
 32
0.0
 13
12.49037753579053
 23
9.443030454789372
 33
0.0
  0
MTEXT
  5
CA
330
C3
100
AcDbEntity
  8
0
 62
     0
100
AcDbMText
 10
6.490377535790532
 20
9.443030454789372
 30
0.0
 40
0.18
 41
0.0
 71
     5
 72
     1
  1
\A1;12.00
1001
ACAD
1000
MTEXTBEGIN
1070
    73
1070
     1
1070
    44
1040
1.0
1070
    74
1070
     0
1000
MTEXTEND
  0
POINT
  5
CB
330
C3
100
AcDbEntity
  8
DEFPOINTS
 62
     0
100
AcDbPoint
 10
0.4903775357905325
 20
8.685786405971899
 30
0.0
  0
POINT
  5
CC
330
C3
100
AcDbEntity
  8
DEFPOINTS
 62
     0
100
AcDbPoint
 10
12.49037753579053
 20
8.685786405971899
 30
0.0
  0
POINT
  5
CD
330
C3
100
AcDbEntity
  8
DEFPOINTS
 62
     0
100
AcDbPoint
 10
12.49037753579053
 20
9.443030454789372
 30
0.0
  0
ENDBLK
  5
CF
330
C3
100
AcDbEntity
  8
0
100
AcDbBlockEnd
  0
BLOCK
  5
DC
330
D1
100
AcDbEntity
  8
0
100
AcDbBlockBegin
  2
*D4
 70
     1
 10
0.0
 20
0.0
 30
0.0
  3
*D4
  1

  0
LINE
  5
D2
330
D1
100
AcDbEntity
  8
0
 62
     0
100
AcDbLine
 10
0.4478775357905144
 20
8.705786405971881
 30
0.0
 11
-0.3202095202547712
 21
8.705786405971881
 31
0.0
  0
LINE
  5
D3
330
D1
100
AcDbEntity
  8
0
 62
     0
100
AcDbLine
 10
0.4428775357901778
 20
7.080786405970972
 30
0.0
 11
-0.3202095202547714
 21
7.080786405970972
 31
0.0
  0
LINE
  5
D4
330
D1
100
AcDbEntity
  8
0
 62
     0
100
AcDbLine
 10
-0.1402095202547712
 20
8.525786405971881
 30
0.0
 11
-0.1402095202547713
 21
8.073286405971426
 31
0.0
  0
LINE
  5
D5
330
D1
100
AcDbEntity
  8
0
 62
     0
100
AcDbLine
 10
-0.1402095202547715
 20
7.260786405970971
 30
0.0
 11
-0.1402095202547713
 21
7.713286405971427
 31
0.0
  0
SOLID
  5
D6
330
D1
100
AcDbEntity
  8
0
 62
     0
100
AcDbTrace
 10
-0.1702095202547712
 20
8.525786405971881
 30
0.0
 11
-0.1102095202547712
 21
8.525786405971881
 31
0.0
 12
-0.1402095202547711
 22
8.705786405971881
 32
0.0
 13
-0.1402095202547711
 23
8.705786405971881
 33
0.0
  0
SOLID
  5
D7
330
D1
100
AcDbEntity
  8
0
 62
     0
100
AcDbTrace
 10
-0.1702095202547714
 20
7.260786405970971
 30
0.0
 11
-0.1102095202547715
 21
7.260786405970971
 31
0.0
 12
-0.1402095202547715
 22
7.080786405970972
 32
0.0
 13
-0.1402095202547715
 23
7.080786405970972
 33
0.0
  0
MTEXT
  5
D8
330
D1
100
AcDbEntity
  8
0
 62
     0
100
AcDbMText
 10
-0.1402095202547726
 20
7.893286405971426
 30
0.0
 40
0.18
 41
0.0
 71
     5
 72
     1
  1
\A1;1.63
1001
ACAD
1000
MTEXTBEGIN
1070
    73
1070
     1
1070
    44
1040
1.0
1070
    74
1070
     0
1000
MTEXTEND
  0
POINT
  5
D9
330
D1
100
AcDbEntity
  8
DEFPOINTS
 62
     0
100
AcDbPoint
 10
0.5103775357905143
 20
8.705786405971881
 30
0.0
  0
POINT
  5
DA
330
D1
100
AcDbEntity
  8
DEFPOINTS
 62
     0
100
AcDbPoint
 10
0.5053775357901778
 20
7.080786405970972
 30
0.0
  0
POINT
  5
DB
330
D1
100
AcDbEntity
  8
DEFPOINTS
 62
     0
100
AcDbPoint
 10
-0.1402095202547715
 20
7.080786405970972
 30
0.0
  0
ENDBLK
  5
DD
330
D1
100
AcDbEntity
  8
0
100
AcDbBlockEnd
  0
ENDSEC
  0
SECTION
  2
ENTITIES
  0
TEXT
  5
BF
330
1F
100
AcDbEntity
  8
TX
 48
0.233332
100
AcDbText
 10
0.6039760196991182
 20
5.83193534557858
 30
0.0
 40
0.09375
  1
SCALE : 1" = 1"
  7
REG
 11
0.6039760196991182
 21
5.92568534557858
 31
0.0
100
AcDbText
 73
     3
  0
TEXT
  5
C0
330
1F
100
AcDbEntity
  8
MAIN
 62
     3
 48
0.233332
100
AcDbText
 10
0.6039760196991182
 20
6.113157030940778
 30
0.0
 40
0.140625
  1
1 PART 12" BODY #1924
  7
REG
100
AcDbText
  0
LWPOLYLINE
  5
C1
330
1F
100
AcDbEntity
  8
MAIN
 62
     5
 48
0.233332
100
AcDbPolyline
 90
        2
 70
     0
 43
0.028125
 10
0.5102401770180763
 20
6.019421188259679
 10
3.34910840029066
 20
6.019421188259679
  0
DIMENSION
  5
C2
330
1F
100
AcDbEntity
  8
0
100
AcDbDimension
  2
*D3
 10
12.49037753579053
 20
9.443030454789372
 30
0.0
 11
6.490377535790532
 21
9.443030454789372
 31
0.0
 70
    32
  3
STANDARD
100
AcDbAlignedDimension
 13
0.4903775357905325
 23
8.685786405971899
 33
0.0
 14
12.49037753579053
 24
8.685786405971899
 34
0.0
100
AcDbRotatedDimension
  0
DIMENSION
  5
D0
330
1F
100
AcDbEntity
  8
0
100
AcDbDimension
  2
*D4
 10
-0.1402095202547715
 20
7.080786405970972
 30
0.0
 11
-0.1402095202547726
 21
7.893286405971426
 31
0.0
 70
    32
  3
STANDARD
100
AcDbAlignedDimension
 13
0.5103775357905143
 23
8.705786405971881
 33
0.0
 14
0.5053775357901778
 24
7.080786405970972
 34
0.0
 50
90.0
100
AcDbRotatedDimension
  0
LWPOLYLINE
  5
195
330
1F
100
AcDbEntity
  8
MAIN
 62
     3
100
AcDbPolyline
 90
      176
 70
     1
 43
0.0
 10
12.42837753579086
 20
8.257786405970652
 42
0.4142135623597758
 10
12.41337753579076
 20
8.272786405971434
 10
12.30837753579074
 20
8.272786405970524
 42
0.4142135623664355
 10
12.29837753579075
 20
8.262786405971215
 10
12.29837753579075
 20
8.232786405970561
 42
-0.4142135623597758
 10
12.28837753579099
 20
8.222786405970797
 10
12.25137753579072
 20
8.222786405970797
 42
-0.4142135623775349
 10
12.23637753579062
 20
8.23778640597067
 10
12.23637753579062
 20
8.303786405970473
 42
-0.4142135623709468
 10
12.2673775357908
 20
8.334786405970877
 10
12.41337753579053
 20
8.334786405971332
 42
0.4142135623730951
 10
12.42837753579086
 20
8.34978640597075
 10
12.42837753579076
 20
8.565786405972009
 42
0.4142135623730951
 10
12.38837753579078
 20
8.605786405971972
 10
11.53037753579038
 20
8.605786405971981
 42
0.4142135623730951
 10
11.49037753579041
 20
8.565786405972009
 10
11.49037753578996
 20
7.645786405971936
 42
0.4142135623730951
 10
11.53037753578992
 20
7.605786405971972
 10
11.78801088360463
 20
7.605786405971961
 42
0.2001604496931437
 10
11.79866828698976
 20
7.610230850416494
 42
-1.215447433725004
 10
11.82637753579145
 20
7.525786405971135
 10
11.53037753578992
 20
7.525786405971135
 42
0.4142135623730951
 10
11.49037753578996
 20
7.485786405971172
 10
11.4903775357903
 20
6.894786405969913
 42
-0.4142135623730951
 10
11.45037753579034
 20
6.854786405969495
 10
11.38887753579031
 20
6.854786405969495
 42
-1.000000000000003
 10
11.38887753579031
 20
6.917786405970506
 10
11.41737753578987
 20
6.917786405970506
 42
0.4142135623664355
 10
11.42737753578986
 20
6.927786405970724
 10
11.42737753578929
 20
6.970786405970844
 10
10.40687753579114
 20
6.970786405970162
 42
-1.000000000000003
 10
10.40687753579114
 20
7.070786405971208
 10
11.15037753579015
 20
7.070786405970753
 42
0.4142135623730951
 10
11.16037753579037
 20
7.080786405970972
 10
11.16037753579037
 20
7.110786405971627
 42
-0.4142135623730951
 10
11.18037753579036
 20
7.130786405971608
 10
11.20037753579034
 20
7.130786405971608
 42
-0.4142135623730951
 10
11.22037753579032
 20
7.110786405971627
 10
11.22037753579043
 20
7.09078640597119
 42
0.4142135623730951
 10
11.24037753579042
 20
7.070786405971208
 10
11.38037753579108
 20
7.070786405971151
 42
0.4142135623897441
 10
11.39037753579107
 20
7.080786405971426
 10
11.39037753579085
 20
7.325786405971317
 42
0.4142135623664355
 10
11.38037753579085
 20
7.335786405971536
 10
11.11737753578525
 20
7.33578640597199
 42
-1.000000000000003
 10
11.11737753578525
 20
7.435786405972354
 10
11.18737753578507
 20
7.435786405972752
 42
0.4142135623631056
 10
11.19737753578506
 20
7.445786405972118
 10
11.19737753578575
 20
7.475786405973227
 42
-0.9999999999711269
 10
11.26037753578721
 20
7.475786405972318
 10
11.26037753578801
 20
7.445786405971663
 42
0.4142135623531162
 10
11.270377535788
 20
7.435786405971899
 10
11.38037753579052
 20
7.435786405971899
 42
0.4142135623664355
 10
11.39037753579051
 20
7.445786405972118
 10
11.39037753579096
 20
8.555786405974064
 42
0.4142135623664355
 10
11.38037753579097
 20
8.565786405974282
 10
11.2703775357905
 20
8.565786405974282
 42
0.4142135623664355
 10
11.26037753579051
 20
8.555786405974064
 10
11.26037753579034
 20
8.330786405970517
 42
-0.4142135623597758
 10
11.15037753579027
 20
8.220786405970844
 10
11.03537753579105
 20
8.22078640597039
 42
-1.000000000000003
 10
11.03537753579105
 20
8.300786405971226
 10
11.1503775357905
 20
8.30078640597117
 42
0.4142135623597758
 10
11.16037753579037
 20
8.310786405971445
 10
11.16037753579082
 20
8.595786405972663
 42
0.4142135623697651
 10
11.15037753579084
 20
8.605786405972882
 10
10.09537753579055
 20
8.605786405972484
 42
0.4142135623631056
 10
10.07537753579068
 20
8.585786405973809
 42
-0.4142135623730951
 10
10.0553775357907
 20
8.565786405973828
 10
10.01537753579107
 20
8.56578640597343
 42
-0.4142135623780898
 10
9.995377535791437
 20
8.585786405973809
 42
0.4142135623730951
 10
9.975377535791
 20
8.605786405972427
 10
6.550377535790136
 20
8.605786405972427
 42
0.4142135623664355
 10
6.530377535790155
 20
8.585786405973809
 42
-0.4142135623714302
 10
6.510377535790286
 20
8.565786405973828
 10
6.470377535790664
 20
8.565786405973771
 42
-0.4142135623664355
 10
6.450377535791137
 20
8.585786405973809
 42
0.4142135623864144
 10
6.4303775357907
 20
8.605786405971972
 10
3.820377535790004
 20
8.605786405971517
 10
3.805377535790132
 20
8.62078640597139
 10
3.790377535793556
 20
8.605786405974246
 10
3.00537753578995
 20
8.605786405973791
 42
0.4142135623714302
 10
2.985377535790082
 20
8.585786405973809
 42
-0.4142135623747599
 10
2.965377535789986
 20
8.565786405973828
 10
2.925377535790364
 20
8.565786405973828
 42
-0.4142135623730951
 10
2.905377535790382
 20
8.585786405973809
 42
0.4142135623647706
 10
2.885377535790514
 20
8.605786405973336
 10
1.83037753579045
 20
8.605786405972882
 42
0.4142135623664355
 10
1.820377535790459
 20
8.595786405972663
 10
1.820377535790573
 20
8.310786405971445
 42
0.4142135623597758
 10
1.830377535790336
 20
8.300786405971226
 10
1.94537753578972
 20
8.300786405971454
 42
-0.9999999999985783
 10
1.945377535789663
 20
8.220786405970844
 10
1.830377535785789
 20
8.220786405970617
 42
-0.4142135623591703
 10
1.720377535790209
 20
8.330786405970517
 10
1.72037753579055
 20
8.555786405974064
 42
0.4142135623664355
 10
1.710377535790559
 20
8.565786405974282
 10
1.600377535790091
 20
8.565786405974282
 42
0.4142135623664355
 10
1.5903775357901
 20
8.555786405974064
 10
1.590377535790327
 20
7.445786405972118
 42
0.4142135623664355
 10
1.600377535790318
 20
7.435786405971899
 10
1.710377535792833
 20
7.435786405971445
 42
0.4142135623697653
 10
1.720377535792938
 20
7.445786405971663
 10
1.72037753579362
 20
7.475786405972318
 42
-0.9999999999711269
 10
1.783377535795086
 20
7.475786405973227
 10
1.783377535795995
 20
7.445786405972118
 42
0.4142135623597758
 10
1.793377535795759
 20
7.435786405972354
 10
1.863377535790124
 20
7.435786405972582
 42
-1.000000000000003
 10
1.863377535790124
 20
7.335786405971536
 10
1.600377535789977
 20
7.335786405971536
 42
0.4142135623664355
 10
1.590377535789986
 20
7.325786405971317
 10
1.590377535789873
 20
7.080786405971426
 42
0.4142135623897441
 10
1.60037753578975
 20
7.070786405971208
 10
1.740377535790418
 20
7.070786405971208
 42
0.4142135623730951
 10
1.7603775357904
 20
7.09078640597119
 10
1.760377535790514
 20
7.110786405971627
 42
-0.4142135623730951
 10
1.780377535790496
 20
7.130786405971608
 10
1.800377535790477
 20
7.130786405971608
 42
-0.4142135623730951
 10
1.820377535790459
 20
7.110786405971627
 10
1.820377535790459
 20
7.080786405970972
 42
0.4142135623730951
 10
1.830377535790677
 20
7.070786405971208
 10
2.573877535789694
 20
7.070786405970753
 42
-1.000000000000003
 10
2.573877535789694
 20
6.97078640597039
 10
1.530377535790837
 20
6.970786405970844
 42
-0.4142135623730951
 10
1.490377535790873
 20
7.010786405970808
 10
1.490377535790873
 20
7.485786405971172
 42
0.4142135623730951
 10
1.450377535790909
 20
7.525786405971135
 10
1.154377535789388
 20
7.525786405970726
 42
-1.215447433724862
 10
1.182086784590947
 20
7.610230850416269
 42
0.2001604496931436
 10
1.192744187976206
 20
7.605786405971972
 10
1.450377535790909
 20
7.605786405971972
 42
0.4142135623730951
 10
1.490377535790873
 20
7.645786405971936
 10
1.490377535790427
 20
8.565786405972009
 42
0.4142135623730951
 10
1.450377535790455
 20
8.605786405971972
 10
0.5923775357902806
 20
8.605786405971992
 42
0.4142135623730951
 10
0.5523775357903169
 20
8.565786405972009
 10
0.5523775357902033
 20
8.34978640597075
 42
0.4142135623730951
 10
0.5673775357905307
 20
8.334786405971332
 10
0.7133775357902615
 20
8.334786405970877
 42
-0.4142135623709468
 10
0.7443775357904379
 20
8.303786405970473
 10
0.7443775357904379
 20
8.23778640597067
 42
-0.4142135623775346
 10
0.7293775357903379
 20
8.222786405970797
 10
0.6923775357900759
 20
8.222786405971252
 42
-0.4142135623597758
 10
0.6823775357903124
 20
8.232786405970561
 10
0.6823775357903124
 20
8.262786405971215
 42
0.4142135623664355
 10
0.6723775357903215
 20
8.272786405970524
 10
0.5673775357903033
 20
8.272786405971434
 42
0.4142135623597758
 10
0.5523775357902033
 20
8.257786405970652
 10
0.5523775357899759
 20
7.157786405970743
 42
0.4142135623553363
 10
0.5673775357903033
 20
7.142786405971325
 10
0.6723775357903215
 20
7.142786405971325
 42
0.4142135623597758
 10
0.682377535790085
 20
7.152786405970633
 10
0.682377535790085
 20
7.182786405970833
 42
-0.4142135623730951
 10
0.6923775357903033
 20
7.192786405970597
 10
0.7293775357903379
 20
7.192786405970181
 42
-0.3084899572725408
 10
0.7433412585863928
 20
7.183264950091494
 42
0.2862624068667973
 10
0.7603276843794823
 20
7.170636361858883
 42
-0.9599697122266148
 10
0.7566559740269732
 20
7.080786405970972
 10
0.5053775357901778
 20
7.080786405970517
 42
-0.4142135623819748
 10
0.4903775357903051
 20
7.095786405970844
 10
0.4903775357905325
 20
8.685786405971899
 42
-0.4142135623664355
 10
0.5103775357905143
 20
8.705786405971881
 10
12.47037753579055
 20
8.705786405971426
 42
-0.4142135623664355
 10
12.49037753579053
 20
8.685786405971899
 10
12.49037753579053
 20
7.095786405970844
 42
-0.4142135623819744
 10
12.47537753579066
 20
7.080786405970972
 10
12.22409909755386
 20
7.080786405971355
 42
-0.959969712226615
 10
12.22042738720135
 20
7.170636361858897
 42
0.286262406866797
 10
12.23741381299474
 20
7.183264950091378
 42
-0.3084899572725408
 10
12.25137753579049
 20
7.192786405970597
 10
12.28837753579053
 20
7.192786405970597
 42
-0.4142135623597758
 10
12.29837753579075
 20
7.182786405970833
 10
12.29837753579075
 20
7.152786405970633
 42
0.4142135623597758
 10
12.30837753579051
 20
7.14278640597087
 10
12.41337753579053
 20
7.142786405971211
 42
0.4142135623575561
 10
12.42837753579109
 20
7.157786405970743
  0
ENDSEC
  0
SECTION
  2
OBJECTS
  0
DICTIONARY
  5
C
330
0
100
AcDbDictionary
  3
ACAD_GROUP
350
D
  3
ACAD_LAYOUT
350
1A
  3
ACAD_MLINESTYLE
350
17
  3
ACAD_PLOTSETTINGS
350
19
  3
ACAD_PLOTSTYLENAME
350
E
  3
ACDBHEADERROUNDTRIPXREC
350
247
  0
DICTIONARY
  5
269
330
1F
100
AcDbDictionary
280
     1
  3
ACAD_LAYOUTSELFREF
360
26A
  0
DICTIONARY
  5
267
330
1B
100
AcDbDictionary
280
     1
  3
ACAD_LAYOUTSELFREF
360
268
  0
DICTIONARY
  5
D
102
{ACAD_REACTORS
330
C
102
}
330
C
100
AcDbDictionary
  0
DICTIONARY
  5
1A
102
{ACAD_REACTORS
330
C
102
}
330
C
100
AcDbDictionary
  0
DICTIONARY
  5
17
102
{ACAD_REACTORS
330
C
102
}
330
C
100
AcDbDictionary
  3
STANDARD
350
18
  0
DICTIONARY
  5
19
102
{ACAD_REACTORS
330
C
102
}
330
C
100
AcDbDictionary
  0
ACDBDICTIONARYWDFLT
  5
E
102
{ACAD_REACTORS
330
C
102
}
330
C
100
AcDbDictionary
281
     1
  3
Normal
350
F
100
AcDbDictionaryWithDefault
340
F
  0
DICTIONARY
  5
247
102
{ACAD_REACTORS
330
C
102
}
330
C
100
AcDbDictionary
  3
CEPSNTYPE
350
251
  3
FINGERPRINTGUID
350
252
  3
HYPERLINKBASE
350
24A
  3
INSUNITS
350
250
  3
LAYOUTDICT
350
24C
  3
LWETCUNION
350
24F
  3
PLOTSETDICT
350
24D
  3
PLOTSTYLNAMDICT
350
24E
  3
PSVPSCALE
350
254
  3
PUCSBASE
350
257
  3
PUCSORGBACK
350
25D
  3
PUCSORGBOTTOM
350
259
  3
PUCSORGFRONT
350
25C
  3
PUCSORGLEFT
350
25A
  3
PUCSORGRIGHT
350
25B
  3
PUCSORGTOP
350
258
  3
PUCSORTHOREF
350
255
  3
PUCSORTHOVIEW
350
256
  3
STYLESHEET
350
24B
  3
TSTACKALIGN
350
248
  3
TSTACKSIZE
350
249
  3
UCSBASE
350
260
  3
UCSORGBACK
350
266
  3
UCSORGBOTTOM
350
262
  3
UCSORGFRONT
350
265
  3
UCSORGLEFT
350
263
  3
UCSORGRIGHT
350
264
  3
UCSORGTOP
350
261
  3
UCSORTHOREF
350
25E
  3
UCSORTHOVIEW
350
25F
  3
VERSIONGUID
350
253
  0
XRECORD
  5
26A
102
{ACAD_REACTORS
330
269
102
}
330
269
100
AcDbXrecord
340
1F
  0
XRECORD
  5
268
102
{ACAD_REACTORS
330
267
102
}
330
267
100
AcDbXrecord
340
1B
  0
MLINESTYLE
  5
18
102
{ACAD_REACTORS
330
17
102
}
330
17
100
AcDbMlineStyle
  2
STANDARD
 70
     0
  3

 62
   256
 51
90.0
 52
90.0
 71
     2
 49
0.5
 62
   256
  6
BYLAYER
 49
-0.5
 62
   256
  6
BYLAYER
  0
ACDBPLACEHOLDER
  5
F
102
{ACAD_REACTORS
330
E
102
}
330
E
100
AcDbPlaceHolder
280
     0
  0
XRECORD
  5
251
102
{ACAD_REACTORS
330
247
102
}
330
247
100
AcDbXrecord
 90
        0
  0
XRECORD
  5
252
102
{ACAD_REACTORS
330
247
102
}
330
247
100
AcDbXrecord
  1
{DC175E3D-AE85-11D5-9A93-0040C77E826B}
  0
XRECORD
  5
24A
102
{ACAD_REACTORS
330
247
102
}
330
247
100
AcDbXrecord
  1

  0
XRECORD
  5
250
102
{ACAD_REACTORS
330
247
102
}
330
247
100
AcDbXrecord
 90
        1
  0
XRECORD
  5
24C
102
{ACAD_REACTORS
330
247
102
}
330
247
100
AcDbXrecord
340
1A
  0
XRECORD
  5
24F
102
{ACAD_REACTORS
330
247
102
}
330
247
100
AcDbXrecord
 90
    10781
  0
XRECORD
  5
24D
102
{ACAD_REACTORS
330
247
102
}
330
247
100
AcDbXrecord
340
19
  0
XRECORD
  5
24E
102
{ACAD_REACTORS
330
247
102
}
330
247
100
AcDbXrecord
340
E
  0
XRECORD
  5
254
102
{ACAD_REACTORS
330
247
102
}
330
247
100
AcDbXrecord
 40
0.0
  0
XRECORD
  5
257
102
{ACAD_REACTORS
330
247
102
}
330
247
100
AcDbXrecord
340
0
  0
XRECORD
  5
25D
102
{ACAD_REACTORS
330
247
102
}
330
247
100
AcDbXrecord
 10
0.0
 20
0.0
 30
0.0
  0
XRECORD
  5
259
102
{ACAD_REACTORS
330
247
102
}
330
247
100
AcDbXrecord
 10
0.0
 20
0.0
 30
0.0
  0
XRECORD
  5
25C
102
{ACAD_REACTORS
330
247
102
}
330
247
100
AcDbXrecord
 10
0.0
 20
0.0
 30
0.0
  0
XRECORD
  5
25A
102
{ACAD_REACTORS
330
247
102
}
330
247
100
AcDbXrecord
 10
0.0
 20
0.0
 30
0.0
  0
XRECORD
  5
25B
102
{ACAD_REACTORS
330
247
102
}
330
247
100
AcDbXrecord
 10
0.0
 20
0.0
 30
0.0
  0
XRECORD
  5
258
102
{ACAD_REACTORS
330
247
102
}
330
247
100
AcDbXrecord
 10
0.0
 20
0.0
 30
0.0
  0
XRECORD
  5
255
102
{ACAD_REACTORS
330
247
102
}
330
247
100
AcDbXrecord
340
0
  0
XRECORD
  5
256
102
{ACAD_REACTORS
330
247
102
}
330
247
100
AcDbXrecord
 70
     0
  0
XRECORD
  5
24B
102
{ACAD_REACTORS
330
247
102
}
330
247
100
AcDbXrecord
  1

  0
XRECORD
  5
248
102
{ACAD_REACTORS
330
247
102
}
330
247
100
AcDbXrecord
 90
        1
  0
XRECORD
  5
249
102
{ACAD_REACTORS
330
247
102
}
330
247
100
AcDbXrecord
 90
       70
  0
XRECORD
  5
260
102
{ACAD_REACTORS
330
247
102
}
330
247
100
AcDbXrecord
340
0
  0
XRECORD
  5
266
102
{ACAD_REACTORS
330
247
102
}
330
247
100
AcDbXrecord
 10
0.0
 20
0.0
 30
0.0
  0
XRECORD
  5
262
102
{ACAD_REACTORS
330
247
102
}
330
247
100
AcDbXrecord
 10
0.0
 20
0.0
 30
0.0
  0
XRECORD
  5
265
102
{ACAD_REACTORS
330
247
102
}
330
247
100
AcDbXrecord
 10
0.0
 20
0.0
 30
0.0
  0
XRECORD
  5
263
102
{ACAD_REACTORS
330
247
102
}
330
247
100
AcDbXrecord
 10
0.0
 20
0.0
 30
0.0
  0
XRECORD
  5
264
102
{ACAD_REACTORS
330
247
102
}
330
247
100
AcDbXrecord
 10
0.0
 20
0.0
 30
0.0
  0
XRECORD
  5
261
102
{ACAD_REACTORS
330
247
102
}
330
247
100
AcDbXrecord
 10
0.0
 20
0.0
 30
0.0
  0
XRECORD
  5
25E
102
{ACAD_REACTORS
330
247
102
}
330
247
100
AcDbXrecord
340
0
  0
XRECORD
  5
25F
102
{ACAD_REACTORS
330
247
102
}
330
247
100
AcDbXrecord
 70
     0
  0
XRECORD
  5
253
102
{ACAD_REACTORS
330
247
102
}
330
247
100
AcDbXrecord
  1
{88A50A1E-048B-429E-8B48-7A07038D8A68}
  0
ENDSEC
  0
EOF
