  0
SECTION
  2
HEADER
  9
$ACADVER
  1
AC1015
  9
$ACADMAINTVER
 70
    20
  9
$DWGCODEPAGE
  3
ANSI_1252
  9
$INSBASE
 10
0.0
 20
0.0
 30
0.0
  9
$EXTMIN
 10
4.523497521691098
 20
4.077400724794128
 30
0.0
  9
$EXTMAX
 10
9.000102856535626
 20
7.119292818644272
 30
0.0
  9
$LIMMIN
 10
0.0
 20
0.0
  9
$LIMMAX
 10
12.0
 20
9.0
  9
$ORTHOMODE
 70
     0
  9
$REGENMODE
 70
     1
  9
$FILLMODE
 70
     1
  9
$QTEXTMODE
 70
     0
  9
$MIRRTEXT
 70
     1
  9
$LTSCALE
 40
1.0
  9
$ATTMODE
 70
     1
  9
$TEXTSIZE
 40
0.2
  9
$TRACEWID
 40
0.05
  9
$TEXTSTYLE
  7
Standard
  9
$CLAYER
  8
0
  9
$CELTYPE
  6
ByLayer
  9
$CECOLOR
 62
   256
  9
$CELTSCALE
 40
1.0
  9
$DISPSILH
 70
     0
  9
$DIMSCALE
 40
1.0
  9
$DIMASZ
 40
0.18
  9
$DIMEXO
 40
0.0625
  9
$DIMDLI
 40
0.38
  9
$DIMRND
 40
0.0
  9
$DIMDLE
 40
0.0
  9
$DIMEXE
 40
0.18
  9
$DIMTP
 40
0.0
  9
$DIMTM
 40
0.0
  9
$DIMTXT
 40
0.18
  9
$DIMCEN
 40
0.09
  9
$DIMTSZ
 40
0.0
  9
$DIMTOL
 70
     0
  9
$DIMLIM
 70
     0
  9
$DIMTIH
 70
     1
  9
$DIMTOH
 70
     1
  9
$DIMSE1
 70
     0
  9
$DIMSE2
 70
     0
  9
$DIMTAD
 70
     0
  9
$DIMZIN
 70
     0
  9
$DIMBLK
  1

  9
$DIMASO
 70
     1
  9
$DIMSHO
 70
     1
  9
$DIMPOST
  1

  9
$DIMAPOST
  1

  9
$DIMALT
 70
     0
  9
$DIMALTD
 70
     2
  9
$DIMALTF
 40
25.4
  9
$DIMLFAC
 40
1.0
  9
$DIMTOFL
 70
     0
  9
$DIMTVP
 40
0.0
  9
$DIMTIX
 70
     0
  9
$DIMSOXD
 70
     0
  9
$DIMSAH
 70
     0
  9
$DIMBLK1
  1

  9
$DIMBLK2
  1

  9
$DIMSTYLE
  2
Standard
  9
$DIMCLRD
 70
     0
  9
$DIMCLRE
 70
     0
  9
$DIMCLRT
 70
     0
  9
$DIMTFAC
 40
1.0
  9
$DIMGAP
 40
0.09
  9
$DIMJUST
 70
     0
  9
$DIMSD1
 70
     0
  9
$DIMSD2
 70
     0
  9
$DIMTOLJ
 70
     1
  9
$DIMTZIN
 70
     0
  9
$DIMALTZ
 70
     0
  9
$DIMALTTZ
 70
     0
  9
$DIMUPT
 70
     0
  9
$DIMDEC
 70
     2
  9
$DIMTDEC
 70
     2
  9
$DIMALTU
 70
     2
  9
$DIMALTTD
 70
     2
  9
$DIMTXSTY
  7
Standard
  9
$DIMAUNIT
 70
     0
  9
$DIMADEC
 70
     0
  9
$DIMALTRND
 40
0.0
  9
$DIMAZIN
 70
     0
  9
$DIMDSEP
 70
    46
  9
$DIMATFIT
 70
     3
  9
$DIMFRAC
 70
     0
  9
$DIMLDRBLK
  1

  9
$DIMLUNIT
 70
     2
  9
$DIMLWD
 70
    -2
  9
$DIMLWE
 70
    -2
  9
$DIMTMOVE
 70
     0
  9
$LUNITS
 70
     2
  9
$LUPREC
 70
     4
  9
$SKETCHINC
 40
0.1
  9
$FILLETRAD
 40
0.5
  9
$AUNITS
 70
     0
  9
$AUPREC
 70
     0
  9
$MENU
  1
.
  9
$ELEVATION
 40
0.0
  9
$PELEVATION
 40
0.0
  9
$THICKNESS
 40
0.0
  9
$LIMCHECK
 70
     0
  9
$CHAMFERA
 40
0.5
  9
$CHAMFERB
 40
0.5
  9
$CHAMFERC
 40
1.0
  9
$CHAMFERD
 40
0.0
  9
$SKPOLY
 70
     0
  9
$TDCREATE
 40
2453892.316967153
  9
$TDUCREATE
 40
2453892.483633820
  9
$TDUPDATE
 40
2453892.319036921
  9
$TDUUPDATE
 40
2453892.485703588
  9
$TDINDWG
 40
0.0020703125
  9
$TDUSRTIMER
 40
0.0020703125
  9
$USRTIMER
 70
     1
  9
$ANGBASE
 50
0.0
  9
$ANGDIR
 70
     0
  9
$PDMODE
 70
     0
  9
$PDSIZE
 40
0.0
  9
$PLINEWID
 40
0.0
  9
$SPLFRAME
 70
     0
  9
$SPLINETYPE
 70
     6
  9
$SPLINESEGS
 70
     8
  9
$HANDSEED
  5
149
  9
$SURFTAB1
 70
     6
  9
$SURFTAB2
 70
     6
  9
$SURFTYPE
 70
     6
  9
$SURFU
 70
     6
  9
$SURFV
 70
     6
  9
$UCSBASE
  2

  9
$UCSNAME
  2

  9
$UCSORG
 10
0.0
 20
0.0
 30
0.0
  9
$UCSXDIR
 10
1.0
 20
0.0
 30
0.0
  9
$UCSYDIR
 10
0.0
 20
1.0
 30
0.0
  9
$UCSORTHOREF
  2

  9
$UCSORTHOVIEW
 70
     0
  9
$UCSORGTOP
 10
0.0
 20
0.0
 30
0.0
  9
$UCSORGBOTTOM
 10
0.0
 20
0.0
 30
0.0
  9
$UCSORGLEFT
 10
0.0
 20
0.0
 30
0.0
  9
$UCSORGRIGHT
 10
0.0
 20
0.0
 30
0.0
  9
$UCSORGFRONT
 10
0.0
 20
0.0
 30
0.0
  9
$UCSORGBACK
 10
0.0
 20
0.0
 30
0.0
  9
$PUCSBASE
  2

  9
$PUCSNAME
  2

  9
$PUCSORG
 10
0.0
 20
0.0
 30
0.0
  9
$PUCSXDIR
 10
1.0
 20
0.0
 30
0.0
  9
$PUCSYDIR
 10
0.0
 20
1.0
 30
0.0
  9
$PUCSORTHOREF
  2

  9
$PUCSORTHOVIEW
 70
     0
  9
$PUCSORGTOP
 10
0.0
 20
0.0
 30
0.0
  9
$PUCSORGBOTTOM
 10
0.0
 20
0.0
 30
0.0
  9
$PUCSORGLEFT
 10
0.0
 20
0.0
 30
0.0
  9
$PUCSORGRIGHT
 10
0.0
 20
0.0
 30
0.0
  9
$PUCSORGFRONT
 10
0.0
 20
0.0
 30
0.0
  9
$PUCSORGBACK
 10
0.0
 20
0.0
 30
0.0
  9
$USERI1
 70
     0
  9
$USERI2
 70
     0
  9
$USERI3
 70
     0
  9
$USERI4
 70
     0
  9
$USERI5
 70
     0
  9
$USERR1
 40
0.0
  9
$USERR2
 40
0.0
  9
$USERR3
 40
0.0
  9
$USERR4
 40
0.0
  9
$USERR5
 40
0.0
  9
$WORLDVIEW
 70
     1
  9
$SHADEDGE
 70
     3
  9
$SHADEDIF
 70
    70
  9
$TILEMODE
 70
     1
  9
$MAXACTVP
 70
    64
  9
$PINSBASE
 10
0.0
 20
0.0
 30
0.0
  9
$PLIMCHECK
 70
     0
  9
$PEXTMIN
 10
1.000000000000000E+20
 20
1.000000000000000E+20
 30
1.000000000000000E+20
  9
$PEXTMAX
 10
-1.000000000000000E+20
 20
-1.000000000000000E+20
 30
-1.000000000000000E+20
  9
$PLIMMIN
 10
0.0
 20
0.0
  9
$PLIMMAX
 10
12.0
 20
9.0
  9
$UNITMODE
 70
     0
  9
$VISRETAIN
 70
     1
  9
$PLINEGEN
 70
     0
  9
$PSLTSCALE
 70
     1
  9
$TREEDEPTH
 70
  3020
  9
$CMLSTYLE
  2
Standard
  9
$CMLJUST
 70
     0
  9
$CMLSCALE
 40
1.0
  9
$PROXYGRAPHICS
 70
     1
  9
$MEASUREMENT
 70
     0
  9
$CELWEIGHT
370
    -1
  9
$ENDCAPS
280
     0
  9
$JOINSTYLE
280
     0
  9
$LWDISPLAY
290
     0
  9
$INSUNITS
 70
     1
  9
$HYPERLINKBASE
  1

  9
$STYLESHEET
  1

  9
$XEDIT
290
     1
  9
$CEPSNTYPE
380
     0
  9
$PSTYLEMODE
290
     1
  9
$FINGERPRINTGUID
  2
{DB800950-CF54-4188-9C9C-62DC31889595}
  9
$VERSIONGUID
  2
{C150B5FB-216C-47D2-A1FA-D18BD5BEE806}
  9
$EXTNAMES
290
     1
  9
$PSVPSCALE
 40
0.0
  9
$OLESTARTUP
290
     0
  0
ENDSEC
  0
SECTION
  2
CLASSES
  0
CLASS
  1
ACDBDICTIONARYWDFLT
  2
AcDbDictionaryWithDefault
  3
ObjectDBX Classes
 90
        0
280
     0
281
     0
  0
CLASS
  1
ACDBPLACEHOLDER
  2
AcDbPlaceHolder
  3
ObjectDBX Classes
 90
        0
280
     0
281
     0
  0
CLASS
  1
LAYOUT
  2
AcDbLayout
  3
ObjectDBX Classes
 90
        0
280
     0
281
     0
  0
CLASS
  1
TABLESTYLE
  2
AcDbTableStyle
  3
ObjectDBX Classes
 90
     2047
280
     0
281
     0
  0
CLASS
  1
SORTENTSTABLE
  2
AcDbSortentsTable
  3
ObjectDBX Classes
 90
        0
280
     0
281
     0
  0
CLASS
  1
DICTIONARYVAR
  2
AcDbDictionaryVar
  3
ObjectDBX Classes
 90
        0
280
     0
281
     0
  0
ENDSEC
  0
SECTION
  2
TABLES
  0
TABLE
  2
VPORT
  5
8
330
0
100
AcDbSymbolTable
 70
     3
  0
VPORT
  5
141
330
8
100
AcDbSymbolTableRecord
100
AcDbViewportTableRecord
  2
*Active
 70
     0
 10
0.0
 20
0.0
 11
1.0
 21
1.0
 12
6.592097753164299
 22
5.590910022545971
 13
0.0
 23
0.0
 14
0.5
 24
0.5
 15
0.5
 25
0.5
 16
0.0
 26
0.0
 36
1.0
 17
0.0
 27
0.0
 37
0.0
 40
6.569040561327833
 41
1.466327827191867
 42
50.0
 43
0.0
 44
0.0
 50
0.0
 51
0.0
 71
     0
 72
   100
 73
     1
 74
     3
 75
     0
 76
     0
 77
     0
 78
     0
281
     0
 65
     1
110
0.0
120
0.0
130
0.0
111
1.0
121
0.0
131
0.0
112
0.0
122
1.0
132
0.0
 79
     0
146
0.0
  0
ENDTAB
  0
TABLE
  2
LTYPE
  5
5
330
0
100
AcDbSymbolTable
 70
     1
  0
LTYPE
  5
14
330
5
100
AcDbSymbolTableRecord
100
AcDbLinetypeTableRecord
  2
ByBlock
 70
     0
  3

 72
    65
 73
     0
 40
0.0
  0
LTYPE
  5
15
330
5
100
AcDbSymbolTableRecord
100
AcDbLinetypeTableRecord
  2
ByLayer
 70
     0
  3

 72
    65
 73
     0
 40
0.0
  0
LTYPE
  5
16
330
5
100
AcDbSymbolTableRecord
100
AcDbLinetypeTableRecord
  2
Continuous
 70
     0
  3
Solid line
 72
    65
 73
     0
 40
0.0
  0
ENDTAB
  0
TABLE
  2
LAYER
  5
2
102
{ACAD_XDICTIONARY
360
DB
102
}
330
0
100
AcDbSymbolTable
 70
     6
  0
LAYER
  5
10
330
2
100
AcDbSymbolTableRecord
100
AcDbLayerTableRecord
  2
0
 70
     0
 62
     7
  6
Continuous
370
    -3
390
F
  0
LAYER
  5
34
330
2
100
AcDbSymbolTableRecord
100
AcDbLayerTableRecord
  2
L
 70
     0
 62
     7
  6
Continuous
370
    -3
390
F
  0
LAYER
  5
45
330
2
100
AcDbSymbolTableRecord
100
AcDbLayerTableRecord
  2
Defpoints
 70
     0
 62
     7
  6
Continuous
290
     0
370
    -3
390
F
  0
LAYER
  5
88
330
2
100
AcDbSymbolTableRecord
100
AcDbLayerTableRecord
  2
tx
 70
     0
 62
   150
  6
Continuous
370
    -3
390
F
  0
LAYER
  5
D2
330
2
100
AcDbSymbolTableRecord
100
AcDbLayerTableRecord
  2
MAIN
 70
     0
 62
     7
  6
Continuous
370
    -3
390
F
  0
LAYER
  5
D3
330
2
100
AcDbSymbolTableRecord
100
AcDbLayerTableRecord
  2
dm
 70
     0
 62
   133
  6
Continuous
370
    -3
390
F
  0
ENDTAB
  0
TABLE
  2
STYLE
  5
3
330
0
100
AcDbSymbolTable
 70
     6
  0
STYLE
  5
11
330
3
100
AcDbSymbolTableRecord
100
AcDbTextStyleTableRecord
  2
Standard
 70
     0
 40
0.0
 41
1.0
 50
0.0
 71
     0
 42
0.2
  3
txt
  4

  0
STYLE
  5
35
330
3
100
AcDbSymbolTableRecord
100
AcDbTextStyleTableRecord
  2
REG
 70
     0
 40
0.0
 41
1.0
 50
0.0
 71
     0
 42
0.09375
  3
E:\R13\com\fonts\ARCHITXT.SHX
  4

  0
STYLE
  5
36
330
3
100
AcDbSymbolTableRecord
100
AcDbTextStyleTableRecord
  2
DIMTXT
 70
     0
 40
0.0
 41
1.0
 50
0.0
 71
     0
 42
1.125
  3
archt.shx
  4

  0
STYLE
  5
D4
330
3
100
AcDbSymbolTableRecord
100
AcDbTextStyleTableRecord
  2
BLD
 70
     0
 40
0.0
 41
1.0
 50
0.0
 71
     0
 42
0.09375
  3
romand.shx
  4

  0
STYLE
  5
D5
330
3
100
AcDbSymbolTableRecord
100
AcDbTextStyleTableRecord
  2
REG2
 70
     0
 40
0.0
 41
0.9
 50
0.0
 71
     0
 42
0.75
  3
E:\R13\com\fonts\romans.shx
  4

  0
STYLE
  5
D6
330
3
100
AcDbSymbolTableRecord
100
AcDbTextStyleTableRecord
  2
ROM2
 70
     0
 40
0.0
 41
0.95
 50
0.0
 71
     0
 42
1.0
  3
ROMANS
  4

  0
ENDTAB
  0
TABLE
  2
VIEW
  5
6
330
0
100
AcDbSymbolTable
 70
     0
  0
ENDTAB
  0
TABLE
  2
UCS
  5
7
330
0
100
AcDbSymbolTable
 70
     0
  0
ENDTAB
  0
TABLE
  2
APPID
  5
9
330
0
100
AcDbSymbolTable
 70
     1
  0
APPID
  5
12
330
9
100
AcDbSymbolTableRecord
100
AcDbRegAppTableRecord
  2
ACAD
 70
     0
  0
ENDTAB
  0
TABLE
  2
DIMSTYLE
  5
A
330
0
100
AcDbSymbolTable
 70
    10
100
AcDbDimStyleTable
 71
     1
340
27
  0
DIMSTYLE
105
27
102
{ACAD_REACTORS
330
120
330
12E
102
}
330
A
100
AcDbSymbolTableRecord
100
AcDbDimStyleTableRecord
  2
Standard
 70
     0
271
     2
272
     2
340
11
  0
DIMSTYLE
105
37
330
A
100
AcDbSymbolTableRecord
100
AcDbDimStyleTableRecord
  2
1
 70
     0
 41
1.125
 42
0.5
 43
0.375
 44
1.19921875
 46
0.5
 73
     0
 74
     0
 77
     1
 78
     3
140
1.125
141
0.125
146
0.8
147
0.5625
172
     1
174
     1
176
   133
177
   133
178
   150
271
     3
272
     3
276
     1
279
     1
340
36
  0
DIMSTYLE
105
38
330
A
100
AcDbSymbolTableRecord
100
AcDbDimStyleTableRecord
  2
1$2
 70
     0
 41
1.5
 42
0.5
 43
0.375
 44
1.19921875
 46
0.5
 73
     0
 74
     0
 77
     1
 78
     3
140
0.75
141
0.125
146
0.8
147
0.5625
172
     1
174
     1
176
   133
177
   133
178
   150
271
     3
272
     3
276
     1
279
     1
340
36
342
30
  0
DIMSTYLE
105
39
330
A
100
AcDbSymbolTableRecord
100
AcDbDimStyleTableRecord
  2
1$4
 70
     0
 41
1.5
 42
0.5
 43
0.375
 44
1.19921875
 46
0.5
 73
     0
 74
     0
 77
     1
 78
     3
140
0.75
141
0.125
146
0.8
147
0.5625
172
     1
173
     1
174
     1
176
   133
177
   133
178
   150
271
     3
272
     3
276
     1
279
     1
340
36
344
30
  0
DIMSTYLE
105
3A
330
A
100
AcDbSymbolTableRecord
100
AcDbDimStyleTableRecord
  2
1$3
 70
     0
 41
1.5
 42
0.5
 43
0.375
 44
1.19921875
 46
0.5
 73
     0
 74
     0
 77
     1
 78
     3
140
0.75
141
0.125
146
0.8
147
0.5625
172
     1
174
     1
176
   133
177
   133
178
   150
271
     3
272
     3
276
     1
279
     1
340
36
342
30
  0
DIMSTYLE
105
3B
330
A
100
AcDbSymbolTableRecord
100
AcDbDimStyleTableRecord
  2
1$7
 70
     0
 41
1.0
 42
0.5
 43
0.375
 44
1.19921875
 46
0.5
 73
     0
 74
     0
 77
     1
 78
     3
140
0.75
141
0.125
146
0.8
147
0.5625
172
     1
174
     1
176
   133
177
   133
178
   150
271
     3
272
     3
276
     1
279
     1
340
36
341
2B
  0
DIMSTYLE
105
D7
330
A
100
AcDbSymbolTableRecord
100
AcDbDimStyleTableRecord
  2
Standard$2
 70
     0
 40
0.0
 41
0.625
 42
0.5
 43
0.375
 44
0.375
 78
     4
 79
     1
140
0.625
141
0.125
146
0.8
147
0.25
176
   133
177
   133
178
   150
271
     3
272
     3
276
     1
288
     1
340
D6
  0
DIMSTYLE
105
D8
330
A
100
AcDbSymbolTableRecord
100
AcDbDimStyleTableRecord
  2
Standard$4
 70
     0
 40
0.0
 41
0.625
 42
0.5
 43
0.375
 44
0.375
 78
     4
 79
     1
140
0.625
141
0.125
146
0.8
147
0.25
173
     1
176
   133
177
   133
178
   150
271
     3
272
     3
276
     1
288
     1
340
D6
343
30
  0
DIMSTYLE
105
D9
330
A
100
AcDbSymbolTableRecord
100
AcDbDimStyleTableRecord
  2
Standard$3
 70
     0
 40
0.0
 41
0.625
 42
0.5
 43
0.375
 44
0.375
 78
     4
 79
     1
140
0.625
141
0.125
146
0.8
147
0.25
176
   133
177
   133
178
   150
271
     3
272
     3
276
     1
288
     1
340
D6
  0
DIMSTYLE
105
DA
330
A
100
AcDbSymbolTableRecord
100
AcDbDimStyleTableRecord
  2
Standard$7
 70
     0
 40
0.0
 41
0.625
 42
0.5
 43
0.375
 44
0.375
 78
     4
 79
     1
140
0.5
141
0.125
146
0.8
147
0.25
176
   133
177
   133
178
   150
271
     3
272
     3
276
     1
289
     0
340
D6
342
30
  0
ENDTAB
  0
TABLE
  2
BLOCK_RECORD
  5
1
330
0
100
AcDbSymbolTable
 70
    11
  0
BLOCK_RECORD
  5
1F
330
1
100
AcDbSymbolTableRecord
100
AcDbBlockTableRecord
  2
*Model_Space
340
22
  0
BLOCK_RECORD
  5
1B
330
1
100
AcDbSymbolTableRecord
100
AcDbBlockTableRecord
  2
*Paper_Space
340
1E
  0
BLOCK_RECORD
  5
23
330
1
100
AcDbSymbolTableRecord
100
AcDbBlockTableRecord
  2
*Paper_Space0
340
26
  0
BLOCK_RECORD
  5
2B
330
1
100
AcDbSymbolTableRecord
100
AcDbBlockTableRecord
  2
_Dot
340
0
  0
BLOCK_RECORD
  5
30
330
1
100
AcDbSymbolTableRecord
100
AcDbBlockTableRecord
  2
_DotSmall
340
0
102
{BLKREFS
331
BE
331
BF
331
CB
331
CC
102
}
  0
BLOCK_RECORD
  5
B8
330
1
100
AcDbSymbolTableRecord
100
AcDbBlockTableRecord
  2
*D4
340
0
  0
BLOCK_RECORD
  5
C5
330
1
100
AcDbSymbolTableRecord
100
AcDbBlockTableRecord
  2
*D5
340
0
  0
BLOCK_RECORD
  5
F2
330
1
100
AcDbSymbolTableRecord
100
AcDbBlockTableRecord
  2
*D7
340
0
  0
BLOCK_RECORD
  5
FF
330
1
100
AcDbSymbolTableRecord
100
AcDbBlockTableRecord
  2
*D8
340
0
  0
BLOCK_RECORD
  5
121
330
1
100
AcDbSymbolTableRecord
100
AcDbBlockTableRecord
  2
*D9
340
0
  0
BLOCK_RECORD
  5
12F
330
1
100
AcDbSymbolTableRecord
100
AcDbBlockTableRecord
  2
*D10
340
0
  0
ENDTAB
  0
ENDSEC
  0
SECTION
  2
BLOCKS
  0
BLOCK
  5
20
330
1F
100
AcDbEntity
  8
0
100
AcDbBlockBegin
  2
*Model_Space
 70
     0
 10
0.0
 20
0.0
 30
0.0
  3
*Model_Space
  1

  0
ENDBLK
  5
21
330
1F
100
AcDbEntity
  8
0
100
AcDbBlockEnd
  0
BLOCK
  5
1C
330
1B
100
AcDbEntity
 67
     1
  8
0
100
AcDbBlockBegin
  2
*Paper_Space
 70
     0
 10
0.0
 20
0.0
 30
0.0
  3
*Paper_Space
  1

  0
ENDBLK
  5
1D
330
1B
100
AcDbEntity
 67
     1
  8
0
100
AcDbBlockEnd
  0
BLOCK
  5
24
330
23
100
AcDbEntity
  8
0
100
AcDbBlockBegin
  2
*Paper_Space0
 70
     0
 10
0.0
 20
0.0
 30
0.0
  3
*Paper_Space0
  1

  0
ENDBLK
  5
25
330
23
100
AcDbEntity
  8
0
100
AcDbBlockEnd
  0
BLOCK
  5
2E
330
2B
100
AcDbEntity
  8
0
100
AcDbBlockBegin
  2
_Dot
 70
     0
 10
0.0
 20
0.0
 30
0.0
  3
_Dot
  1

  0
LWPOLYLINE
  5
2C
330
2B
100
AcDbEntity
  8
L
 62
     0
100
AcDbPolyline
 90
        2
 70
     1
 43
0.5
 10
-0.25
 20
0.0
 42
1.0
 10
0.25
 20
0.0
 42
1.0
  0
LINE
  5
2D
330
2B
100
AcDbEntity
  8
L
 62
     0
370
    -2
100
AcDbLine
 10
-0.5
 20
0.0
 30
0.0
 11
-1.0
 21
0.0
 31
0.0
  0
ENDBLK
  5
2F
330
2B
100
AcDbEntity
  8
0
100
AcDbBlockEnd
  0
BLOCK
  5
32
330
30
100
AcDbEntity
  8
0
 48
0.116666
100
AcDbBlockBegin
  2
_DotSmall
 70
     0
 10
0.0
 20
0.0
 30
0.0
  3
_DotSmall
  1

  0
LWPOLYLINE
  5
31
330
30
100
AcDbEntity
  8
0
  6
ByBlock
 62
     0
100
AcDbPolyline
 90
        2
 70
     1
 43
0.5
 10
-0.0625
 20
0.0
 42
1.0
 10
0.0625
 20
0.0
 42
1.0
  0
ENDBLK
  5
33
330
30
100
AcDbEntity
  8
0
 48
0.116666
100
AcDbBlockEnd
  0
BLOCK
  5
B9
330
B8
100
AcDbEntity
  8
0
 48
0.116666
100
AcDbBlockBegin
  2
*D4
 70
     1
 10
0.0
 20
0.0
 30
0.0
  3
*D4
  1

  0
LINE
  5
BA
330
B8
100
AcDbEntity
  8
MAIN
 62
   133
 48
0.116666
370
    -2
100
AcDbLine
 10
1204.162143256645
 20
551.8348128904911
 30
0.0
 11
1204.528958516147
 21
551.8348128904911
 31
0.0
  0
LINE
  5
BB
330
B8
100
AcDbEntity
  8
MAIN
 62
   133
 48
0.116666
370
    -2
100
AcDbLine
 10
1204.162143256646
 20
550.1473128904911
 30
0.0
 11
1204.528958516147
 21
550.1473128904911
 31
0.0
  0
LINE
  5
BC
330
B8
100
AcDbEntity
  8
MAIN
 62
   133
 48
0.116666
370
    -2
100
AcDbLine
 10
1204.472708516147
 20
551.8348128904911
 30
0.0
 11
1204.472708516147
 21
551.0754378904911
 31
0.0
  0
LINE
  5
BD
330
B8
100
AcDbEntity
  8
MAIN
 62
   133
 48
0.116666
370
    -2
100
AcDbLine
 10
1204.472708516147
 20
550.1473128904911
 30
0.0
 11
1204.472708516147
 21
550.906687890491
 31
0.0
  0
INSERT
  5
BE
330
B8
100
AcDbEntity
  8
MAIN
 62
   133
 48
0.116666
370
    -2
100
AcDbBlockReference
  2
_DotSmall
 10
1204.472708516147
 20
551.8348128904911
 30
0.0
 41
0.15
 42
0.15
 43
0.15
 50
90.0
  0
INSERT
  5
BF
330
B8
100
AcDbEntity
  8
MAIN
 62
   133
 48
0.116666
370
    -2
100
AcDbBlockReference
  2
_DotSmall
 10
1204.472708516147
 20
550.1473128904911
 30
0.0
 41
0.15
 42
0.15
 43
0.15
 50
270.0
  0
MTEXT
  5
C0
330
B8
100
AcDbEntity
  8
MAIN
 62
   150
 48
0.116666
100
AcDbMText
 10
1204.472708516146
 20
550.9910628904911
 30
0.0
 40
0.09375
 41
0.0
 71
     5
 72
     1
  1
\A1;1.688
  7
REG2
 73
     1
 44
1.0
1001
ACAD
1000
MTEXTBEGIN
1070
    73
1070
     1
1070
    44
1040
1.0
1070
    74
1070
     0
1000
MTEXTEND
  0
POINT
  5
C1
330
B8
100
AcDbEntity
  8
Defpoints
 62
     0
 48
0.116666
100
AcDbPoint
 10
1204.087143256645
 20
551.8348128904911
 30
0.0
  0
POINT
  5
C2
330
B8
100
AcDbEntity
  8
Defpoints
 62
     0
 48
0.116666
100
AcDbPoint
 10
1204.087143256645
 20
550.1473128904911
 30
0.0
  0
POINT
  5
C3
330
B8
100
AcDbEntity
  8
Defpoints
 62
     0
 48
0.116666
100
AcDbPoint
 10
1204.472708516147
 20
550.1473128904911
 30
0.0
  0
ENDBLK
  5
C4
330
B8
100
AcDbEntity
  8
0
 48
0.116666
100
AcDbBlockEnd
  0
BLOCK
  5
C6
330
C5
100
AcDbEntity
  8
0
 48
0.116666
100
AcDbBlockBegin
  2
*D5
 70
     1
 10
0.0
 20
0.0
 30
0.0
  3
*D5
  1

  0
LINE
  5
C7
330
C5
100
AcDbEntity
  8
MAIN
 62
   133
 48
0.116666
370
    -2
100
AcDbLine
 10
1202.267143256645
 20
551.8698128904912
 30
0.0
 11
1202.267143256645
 21
552.1801094358574
 31
0.0
  0
LINE
  5
C8
330
C5
100
AcDbEntity
  8
MAIN
 62
   133
 48
0.116666
370
    -2
100
AcDbLine
 10
1204.127143256645
 20
551.8698128904912
 30
0.0
 11
1204.127143256645
 21
552.1801094358574
 31
0.0
  0
LINE
  5
C9
330
C5
100
AcDbEntity
  8
MAIN
 62
   133
 48
0.116666
370
    -2
100
AcDbLine
 10
1202.267143256645
 20
552.1238594358574
 30
0.0
 11
1202.996920042359
 21
552.1238594358574
 31
0.0
  0
LINE
  5
CA
330
C5
100
AcDbEntity
  8
MAIN
 62
   133
 48
0.116666
370
    -2
100
AcDbLine
 10
1204.127143256645
 20
552.1238594358574
 30
0.0
 11
1203.39736647093
 21
552.1238594358574
 31
0.0
  0
INSERT
  5
CB
330
C5
100
AcDbEntity
  8
MAIN
 62
   133
 48
0.116666
370
    -2
100
AcDbBlockReference
  2
_DotSmall
 10
1202.267143256645
 20
552.1238594358574
 30
0.0
 41
0.15
 42
0.15
 43
0.15
 50
180.0
  0
INSERT
  5
CC
330
C5
100
AcDbEntity
  8
MAIN
 62
   133
 48
0.116666
370
    -2
100
AcDbBlockReference
  2
_DotSmall
 10
1204.127143256645
 20
552.1238594358574
 30
0.0
 41
0.15
 42
0.15
 43
0.15
  0
MTEXT
  5
CD
330
C5
100
AcDbEntity
  8
MAIN
 62
   150
 48
0.116666
100
AcDbMText
 10
1203.197143256645
 20
552.1238594358574
 30
0.0
 40
0.09375
 41
0.0
 71
     5
 72
     1
  1
\A1;1.860
  7
REG2
 73
     1
 44
1.0
1001
ACAD
1000
MTEXTBEGIN
1070
    73
1070
     1
1070
    44
1040
1.0
1070
    74
1070
     0
1000
MTEXTEND
  0
POINT
  5
CE
330
C5
100
AcDbEntity
  8
Defpoints
 62
     0
 48
0.116666
100
AcDbPoint
 10
1202.267143256645
 20
551.7948128904911
 30
0.0
  0
POINT
  5
CF
330
C5
100
AcDbEntity
  8
Defpoints
 62
     0
 48
0.116666
100
AcDbPoint
 10
1204.127143256645
 20
551.7948128904911
 30
0.0
  0
POINT
  5
D0
330
C5
100
AcDbEntity
  8
Defpoints
 62
     0
 48
0.116666
100
AcDbPoint
 10
1204.127143256645
 20
552.1238594358574
 30
0.0
  0
ENDBLK
  5
D1
330
C5
100
AcDbEntity
  8
0
 48
0.116666
100
AcDbBlockEnd
  0
BLOCK
  5
FD
330
F2
100
AcDbEntity
  8
0
100
AcDbBlockBegin
  2
*D7
 70
     1
 10
0.0
 20
0.0
 30
0.0
  3
*D7
  1

  0
LINE
  5
10C
330
F2
100
AcDbEntity
  8
MAIN
 62
     0
370
    -2
100
AcDbLine
 10
7.325676872541693
 20
6.534287496986774
 30
0.0
 11
7.728867132043085
 21
6.534287496986774
 31
0.0
  0
LINE
  5
10D
330
F2
100
AcDbEntity
  8
MAIN
 62
     0
370
    -2
100
AcDbLine
 10
7.325676872541921
 20
4.846787496986774
 30
0.0
 11
7.728867132043084
 21
4.846787496986774
 31
0.0
  0
LINE
  5
10E
330
F2
100
AcDbEntity
  8
MAIN
 62
     0
370
    -2
100
AcDbLine
 10
7.701867132043084
 20
6.507287496986774
 30
0.0
 11
7.701867132043084
 21
5.717537496986774
 31
0.0
  0
LINE
  5
10F
330
F2
100
AcDbEntity
  8
MAIN
 62
     0
370
    -2
100
AcDbLine
 10
7.701867132043084
 20
4.873787496986774
 30
0.0
 11
7.701867132043084
 21
5.663537496986774
 31
0.0
  0
SOLID
  5
110
330
F2
100
AcDbEntity
  8
MAIN
 62
     0
100
AcDbTrace
 10
7.697367132043084
 20
6.507287496986774
 30
0.0
 11
7.706367132043085
 21
6.507287496986774
 31
0.0
 12
7.701867132043084
 22
6.534287496986774
 32
0.0
 13
7.701867132043084
 23
6.534287496986774
 33
0.0
  0
SOLID
  5
111
330
F2
100
AcDbEntity
  8
MAIN
 62
     0
100
AcDbTrace
 10
7.697367132043083
 20
4.873787496986774
 30
0.0
 11
7.706367132043084
 21
4.873787496986774
 31
0.0
 12
7.701867132043084
 22
4.846787496986774
 32
0.0
 13
7.701867132043084
 23
4.846787496986774
 33
0.0
  0
MTEXT
  5
112
330
F2
100
AcDbEntity
  8
MAIN
 62
     0
100
AcDbMText
 10
7.701867132043083
 20
5.690537496986775
 30
0.0
 40
0.027
 41
0.0
 71
     5
 72
     1
  1
\A1;1.69
 73
     1
 44
1.0
1001
ACAD
1000
MTEXTBEGIN
1070
    73
1070
     1
1070
    44
1040
1.0
1070
    74
1070
     0
1000
MTEXTEND
  0
POINT
  5
113
330
F2
100
AcDbEntity
  8
Defpoints
 62
     0
100
AcDbPoint
 10
7.316301872541693
 20
6.534287496986774
 30
0.0
  0
POINT
  5
114
330
F2
100
AcDbEntity
  8
Defpoints
 62
     0
100
AcDbPoint
 10
7.31630187254192
 20
4.846787496986774
 30
0.0
  0
POINT
  5
115
330
F2
100
AcDbEntity
  8
Defpoints
 62
     0
100
AcDbPoint
 10
7.701867132043084
 20
4.846787496986774
 30
0.0
  0
ENDBLK
  5
FE
330
F2
100
AcDbEntity
  8
0
100
AcDbBlockEnd
  0
BLOCK
  5
10A
330
FF
100
AcDbEntity
  8
0
100
AcDbBlockBegin
  2
*D8
 70
     1
 10
0.0
 20
0.0
 30
0.0
  3
*D8
  1

  0
LINE
  5
116
330
FF
100
AcDbEntity
  8
MAIN
 62
     0
370
    -2
100
AcDbLine
 10
5.496301872541756
 20
6.503662496986811
 30
0.0
 11
5.496301872541756
 21
6.850334042353092
 31
0.0
  0
LINE
  5
117
330
FF
100
AcDbEntity
  8
MAIN
 62
     0
370
    -2
100
AcDbLine
 10
7.356301872541656
 20
6.503662496986811
 30
0.0
 11
7.356301872541656
 21
6.850334042353092
 31
0.0
  0
LINE
  5
118
330
FF
100
AcDbEntity
  8
MAIN
 62
     0
370
    -2
100
AcDbLine
 10
5.523301872541757
 20
6.823334042353092
 30
0.0
 11
6.376801872541706
 21
6.823334042353092
 31
0.0
  0
LINE
  5
119
330
FF
100
AcDbEntity
  8
MAIN
 62
     0
370
    -2
100
AcDbLine
 10
7.329301872541656
 20
6.823334042353092
 30
0.0
 11
6.475801872541707
 21
6.823334042353092
 31
0.0
  0
SOLID
  5
11A
330
FF
100
AcDbEntity
  8
MAIN
 62
     0
100
AcDbTrace
 10
5.523301872541757
 20
6.827834042353092
 30
0.0
 11
5.523301872541757
 21
6.818834042353092
 31
0.0
 12
5.496301872541756
 22
6.823334042353092
 32
0.0
 13
5.496301872541756
 23
6.823334042353092
 33
0.0
  0
SOLID
  5
11B
330
FF
100
AcDbEntity
  8
MAIN
 62
     0
100
AcDbTrace
 10
7.329301872541656
 20
6.827834042353092
 30
0.0
 11
7.329301872541656
 21
6.818834042353092
 31
0.0
 12
7.356301872541656
 22
6.823334042353092
 32
0.0
 13
7.356301872541656
 23
6.823334042353092
 33
0.0
  0
MTEXT
  5
11C
330
FF
100
AcDbEntity
  8
MAIN
 62
     0
100
AcDbMText
 10
6.426301872541706
 20
6.823334042353092
 30
0.0
 40
0.027
 41
0.0
 71
     5
 72
     1
  1
\A1;1.86
 73
     1
 44
1.0
1001
ACAD
1000
MTEXTBEGIN
1070
    73
1070
     1
1070
    44
1040
1.0
1070
    74
1070
     0
1000
MTEXTEND
  0
POINT
  5
11D
330
FF
100
AcDbEntity
  8
Defpoints
 62
     0
100
AcDbPoint
 10
5.496301872541756
 20
6.49428749698681
 30
0.0
  0
POINT
  5
11E
330
FF
100
AcDbEntity
  8
Defpoints
 62
     0
100
AcDbPoint
 10
7.356301872541656
 20
6.49428749698681
 30
0.0
  0
POINT
  5
11F
330
FF
100
AcDbEntity
  8
Defpoints
 62
     0
100
AcDbPoint
 10
7.356301872541656
 20
6.823334042353092
 30
0.0
  0
ENDBLK
  5
10B
330
FF
100
AcDbEntity
  8
0
100
AcDbBlockEnd
  0
BLOCK
  5
12C
330
121
100
AcDbEntity
  8
0
100
AcDbBlockBegin
  2
*D9
 70
     1
 10
0.0
 20
0.0
 30
0.0
  3
*D9
  1

  0
LINE
  5
122
330
121
100
AcDbEntity
  8
0
 62
     0
370
    -2
100
AcDbLine
 10
5.496301872541756
 20
6.55678749698681
 30
0.0
 11
5.496301872541756
 21
7.119292818644272
 31
0.0
  0
LINE
  5
123
330
121
100
AcDbEntity
  8
0
 62
     0
370
    -2
100
AcDbLine
 10
7.356301872541656
 20
6.55678749698681
 30
0.0
 11
7.356301872541656
 21
7.119292818644272
 31
0.0
  0
LINE
  5
124
330
121
100
AcDbEntity
  8
0
 62
     0
370
    -2
100
AcDbLine
 10
5.676301872541756
 20
6.939292818644272
 30
0.0
 11
6.096301872541706
 21
6.939292818644272
 31
0.0
  0
LINE
  5
125
330
121
100
AcDbEntity
  8
0
 62
     0
370
    -2
100
AcDbLine
 10
7.176301872541657
 20
6.939292818644272
 30
0.0
 11
6.756301872541706
 21
6.939292818644272
 31
0.0
  0
SOLID
  5
126
330
121
100
AcDbEntity
  8
0
 62
     0
100
AcDbTrace
 10
5.676301872541756
 20
6.969292818644272
 30
0.0
 11
5.676301872541756
 21
6.909292818644272
 31
0.0
 12
5.496301872541756
 22
6.939292818644272
 32
0.0
 13
5.496301872541756
 23
6.939292818644272
 33
0.0
  0
SOLID
  5
127
330
121
100
AcDbEntity
  8
0
 62
     0
100
AcDbTrace
 10
7.176301872541657
 20
6.969292818644272
 30
0.0
 11
7.176301872541657
 21
6.909292818644272
 31
0.0
 12
7.356301872541656
 22
6.939292818644272
 32
0.0
 13
7.356301872541656
 23
6.939292818644272
 33
0.0
  0
MTEXT
  5
128
330
121
100
AcDbEntity
  8
0
 62
     0
100
AcDbMText
 10
6.426301872541706
 20
6.939292818644272
 30
0.0
 40
0.18
 41
0.0
 71
     5
 72
     1
  1
\A1;1.86
 73
     1
 44
1.0
1001
ACAD
1000
MTEXTBEGIN
1070
    73
1070
     1
1070
    44
1040
1.0
1070
    74
1070
     0
1000
MTEXTEND
  0
POINT
  5
129
330
121
100
AcDbEntity
  8
Defpoints
 62
     0
100
AcDbPoint
 10
5.496301872541756
 20
6.49428749698681
 30
0.0
  0
POINT
  5
12A
330
121
100
AcDbEntity
  8
Defpoints
 62
     0
100
AcDbPoint
 10
7.356301872541656
 20
6.49428749698681
 30
0.0
  0
POINT
  5
12B
330
121
100
AcDbEntity
  8
Defpoints
 62
     0
100
AcDbPoint
 10
7.356301872541656
 20
6.939292818644272
 30
0.0
  0
ENDBLK
  5
12D
330
121
100
AcDbEntity
  8
0
100
AcDbBlockEnd
  0
BLOCK
  5
13A
330
12F
100
AcDbEntity
  8
0
100
AcDbBlockBegin
  2
*D10
 70
     1
 10
0.0
 20
0.0
 30
0.0
  3
*D10
  1

  0
LINE
  5
130
330
12F
100
AcDbEntity
  8
0
 62
     0
370
    -2
100
AcDbLine
 10
5.47380187254172
 20
6.534287496986774
 30
0.0
 11
4.769467230625111
 21
6.534287496986774
 31
0.0
  0
LINE
  5
131
330
12F
100
AcDbEntity
  8
0
 62
     0
370
    -2
100
AcDbLine
 10
5.473801872541493
 20
4.846787496987115
 30
0.0
 11
4.76946723062511
 21
4.846787496987115
 31
0.0
  0
LINE
  5
132
330
12F
100
AcDbEntity
  8
0
 62
     0
370
    -2
100
AcDbLine
 10
4.949467230625111
 20
6.354287496986774
 30
0.0
 11
4.94946723062511
 21
5.870537496986944
 31
0.0
  0
LINE
  5
133
330
12F
100
AcDbEntity
  8
0
 62
     0
370
    -2
100
AcDbLine
 10
4.94946723062511
 20
5.026787496987115
 30
0.0
 11
4.94946723062511
 21
5.510537496986945
 31
0.0
  0
SOLID
  5
134
330
12F
100
AcDbEntity
  8
0
 62
     0
100
AcDbTrace
 10
4.919467230625111
 20
6.354287496986774
 30
0.0
 11
4.979467230625111
 21
6.354287496986774
 31
0.0
 12
4.949467230625111
 22
6.534287496986774
 32
0.0
 13
4.949467230625111
 23
6.534287496986774
 33
0.0
  0
SOLID
  5
135
330
12F
100
AcDbEntity
  8
0
 62
     0
100
AcDbTrace
 10
4.91946723062511
 20
5.026787496987115
 30
0.0
 11
4.97946723062511
 21
5.026787496987115
 31
0.0
 12
4.94946723062511
 22
4.846787496987115
 32
0.0
 13
4.94946723062511
 23
4.846787496987115
 33
0.0
  0
MTEXT
  5
136
330
12F
100
AcDbEntity
  8
0
 62
     0
100
AcDbMText
 10
4.949467230625109
 20
5.690537496986945
 30
0.0
 40
0.18
 41
0.0
 71
     5
 72
     1
  1
\A1;1.69
 73
     1
 44
1.0
1001
ACAD
1000
MTEXTBEGIN
1070
    73
1070
     1
1070
    44
1040
1.0
1070
    74
1070
     0
1000
MTEXTEND
  0
POINT
  5
137
330
12F
100
AcDbEntity
  8
Defpoints
 62
     0
100
AcDbPoint
 10
5.53630187254172
 20
6.534287496986774
 30
0.0
  0
POINT
  5
138
330
12F
100
AcDbEntity
  8
Defpoints
 62
     0
100
AcDbPoint
 10
5.536301872541493
 20
4.846787496987115
 30
0.0
  0
POINT
  5
139
330
12F
100
AcDbEntity
  8
Defpoints
 62
     0
100
AcDbPoint
 10
4.94946723062511
 20
4.846787496987115
 30
0.0
  0
ENDBLK
  5
13B
330
12F
100
AcDbEntity
  8
0
100
AcDbBlockEnd
  0
ENDSEC
  0
SECTION
  2
ENTITIES
  0
LWPOLYLINE
  5
EC
330
1F
100
AcDbEntity
  8
dm
 62
     5
100
AcDbPolyline
 90
       65
 70
     1
 43
0.0
 10
7.356301872541656
 20
6.49428749698681
 42
0.4142135623730951
 10
7.316301872541693
 20
6.534287496986774
 10
7.142051872540982
 20
6.534287496986774
 42
0.4142135623730951
 10
7.112051872541236
 20
6.504287496986915
 10
7.112051872541009
 20
6.504287496986915
 10
7.112051872541009
 20
6.491287496986767
 42
-0.4142135623742051
 10
7.082051872541036
 20
6.461287496986681
 10
7.082051872541036
 20
6.461287496986908
 10
6.879013571912913
 20
6.461287496986795
 42
0.7812856265061825
 10
6.871637375854938
 20
6.431703190475712
 10
6.871637375854938
 20
6.431703190475598
 10
6.91503447203619
 20
6.408628545129698
 42
0.1227845609009238
 10
6.924423903291803
 20
6.406287496986958
 10
7.082051872541036
 20
6.406287496986958
 10
7.082051872541036
 20
6.406287496986731
 42
0.3261558532789464
 10
7.163008300972855
 20
6.465382734962116
 10
7.163008300509922
 20
6.465382735110249
 42
-0.3261558532796676
 10
7.182056871905764
 20
6.479287496986824
 10
7.281301872541611
 20
6.479287496986824
 42
-0.4142135623730951
 10
7.301301872541593
 20
6.459287496986842
 10
7.301301872541593
 20
6.303787496986767
 42
-0.4142135623730951
 10
7.27130187254162
 20
6.273787496986795
 10
7.086397825737016
 20
6.273787496986795
 42
0.1628603417869075
 10
7.080379675505504
 20
6.27177385208726
 10
7.031997421847258
 20
6.235315208890522
 42
1.0
 10
7.065097248120231
 20
6.191390255837784
 10
7.096110221041421
 20
6.21476020718789
 42
-0.1628603417885357
 10
7.108146521504444
 20
6.218787496986845
 10
7.27130187254162
 20
6.218787496986845
 42
-0.4142135623730202
 10
7.301301872541593
 20
6.188787496986872
 10
7.30130187254182
 20
4.921787496986706
 42
-0.4142135623732256
 10
7.281301872541838
 20
4.901787496986724
 10
5.571301872541575
 20
4.901787496987065
 42
-0.4142135623731958
 10
5.551301872541593
 20
4.921787496987047
 10
5.551301872542047
 20
6.188787496986531
 42
-0.4142135623727436
 10
5.58130187254202
 20
6.218787496986504
 10
5.744457223578514
 20
6.218787496986845
 42
-0.1628603417886323
 10
5.756493524041538
 20
6.21476020718789
 10
5.787506496962954
 20
6.191390255837671
 42
1.000000000001244
 10
5.820606323235928
 20
6.235315208890636
 10
5.772224069577454
 20
6.271773852087374
 42
0.1628603417886633
 10
5.766205919345942
 20
6.273787496986908
 10
5.581301872541793
 20
6.273787496986454
 42
-0.414213562372995
 10
5.55130187254182
 20
6.303787496986426
 10
5.551301872541593
 20
6.459287496986842
 42
-0.4142135623730951
 10
5.571301872541575
 20
6.479287496986824
 10
5.670546873177421
 20
6.479287496986824
 42
-0.3261558532791284
 10
5.689595444573264
 20
6.465382735110249
 10
5.689595444110558
 20
6.465382734962229
 42
0.3261558532790732
 10
5.770551872542149
 20
6.406287496986958
 10
5.92817984179252
 20
6.406287496987072
 42
0.1227845609013362
 10
5.937569273048133
 20
6.408628545129811
 10
5.980966369228248
 20
6.431703190475371
 42
0.7812856265075503
 10
5.973590173170272
 20
6.461287496986908
 10
5.770551872542149
 20
6.461287496986908
 42
-0.414213562374205
 10
5.740551872542404
 20
6.491287496986767
 10
5.740551872542177
 20
6.491287496986767
 10
5.740551872542177
 20
6.504287496986915
 42
0.4142135623719851
 10
5.710551872542204
 20
6.534287496986774
 10
5.53630187254172
 20
6.534287496986774
 42
0.4142135623730951
 10
5.496301872541756
 20
6.49428749698681
 10
5.496301872541529
 20
4.886787496986737
 42
0.4142135623739276
 10
5.536301872541493
 20
4.846787496987115
 10
7.31630187254192
 20
4.846787496986774
 42
0.4142135623730951
 10
7.356301872541884
 20
4.886787496986737
  0
TEXT
  5
EF
330
1F
100
AcDbEntity
  8
tx
 48
0.116666
100
AcDbText
 10
4.617233364372197
 20
4.077400724794124
 30
0.0
 40
0.09375
  1
SCALE : 1"=1"
  7
BLD
 11
4.617233364372197
 21
4.171150724794124
 31
0.0
100
AcDbText
 73
     3
  0
TEXT
  5
F0
330
1F
100
AcDbEntity
  8
MAIN
 62
     3
 48
0.116666
100
AcDbText
 10
4.617233364372197
 20
4.358622410156094
 30
0.0
 40
0.1125
  1
LARGE SOCKET RACEWAY PART #1983
  7
BLD
100
AcDbText
  0
LWPOLYLINE
  5
F1
330
1F
100
AcDbEntity
  8
MAIN
 62
     5
 48
0.116666
100
AcDbPolyline
 90
        2
 70
     0
 43
0.01875
 10
4.523497521691098
 20
4.264886567475109
 10
8.109421628833871
 20
4.264886567475109
  0
DIMENSION
  5
120
330
1F
100
AcDbEntity
  8
0
100
AcDbDimension
  2
*D9
 10
7.356301872541656
 20
6.939292818644272
 30
0.0
 11
6.426301872541706
 21
6.939292818644272
 31
0.0
 70
    32
 71
     5
 42
1.859999999999899
  3
Standard
100
AcDbAlignedDimension
 13
5.496301872541756
 23
6.49428749698681
 33
0.0
 14
7.356301872541656
 24
6.49428749698681
 34
0.0
100
AcDbRotatedDimension
  0
DIMENSION
  5
12E
330
1F
100
AcDbEntity
  8
0
100
AcDbDimension
  2
*D10
 10
4.94946723062511
 20
4.846787496987115
 30
0.0
 11
4.949467230625109
 21
5.690537496986945
 31
0.0
 70
    32
 71
     5
 42
1.687499999999658
  3
Standard
100
AcDbAlignedDimension
 13
5.53630187254172
 23
6.534287496986774
 33
0.0
 14
5.536301872541493
 24
4.846787496987115
 34
0.0
 50
90.0
100
AcDbRotatedDimension
  0
ENDSEC
  0
SECTION
  2
OBJECTS
  0
DICTIONARY
  5
C
330
0
100
AcDbDictionary
281
     1
  3
ACAD_COLOR
350
B2
  3
ACAD_GROUP
350
D
  3
ACAD_LAYOUT
350
1A
  3
ACAD_MATERIAL
350
B1
  3
ACAD_MLINESTYLE
350
17
  3
ACAD_PLOTSETTINGS
350
19
  3
ACAD_PLOTSTYLENAME
350
E
  3
ACAD_TABLESTYLE
350
B3
  3
ACDBHEADERROUNDTRIPXREC
350
142
  3
AcDbVariableDictionary
350
13D
  0
DICTIONARY
  5
DB
330
2
100
AcDbDictionary
280
     1
281
     1
  3
ACAD_LAYERSTATES
360
DC
  0
DICTIONARY
  5
B2
102
{ACAD_REACTORS
330
C
102
}
330
C
100
AcDbDictionary
281
     1
  0
DICTIONARY
  5
D
102
{ACAD_REACTORS
330
C
102
}
330
C
100
AcDbDictionary
281
     1
  0
DICTIONARY
  5
1A
102
{ACAD_REACTORS
330
C
102
}
330
C
100
AcDbDictionary
281
     1
  3
Layout1
350
1E
  3
Layout2
350
26
  3
Model
350
22
  0
DICTIONARY
  5
B1
102
{ACAD_REACTORS
330
C
102
}
330
C
100
AcDbDictionary
281
     1
  0
DICTIONARY
  5
17
102
{ACAD_REACTORS
330
C
102
}
330
C
100
AcDbDictionary
281
     1
  3
Standard
350
18
  0
DICTIONARY
  5
19
102
{ACAD_REACTORS
330
C
102
}
330
C
100
AcDbDictionary
281
     1
  0
ACDBDICTIONARYWDFLT
  5
E
102
{ACAD_REACTORS
330
C
102
}
330
C
100
AcDbDictionary
281
     1
  3
Normal
350
F
100
AcDbDictionaryWithDefault
340
F
  0
DICTIONARY
  5
B3
102
{ACAD_REACTORS
330
C
102
}
330
C
100
AcDbDictionary
281
     1
  3
Standard
350
B4
  0
DICTIONARY
  5
142
102
{ACAD_REACTORS
330
C
102
}
330
C
100
AcDbDictionary
281
     1
  0
DICTIONARY
  5
13D
102
{ACAD_REACTORS
330
C
102
}
330
C
100
AcDbDictionary
281
     1
  3
CTABLESTYLE
350
13E
  3
DIMASSOC
350
13F
  3
PROJECTNAME
350
140
  0
DICTIONARY
  5
DC
102
{ACAD_REACTORS
330
DB
102
}
330
DB
100
AcDbDictionary
281
     1
  0
LAYOUT
  5
1E
102
{ACAD_XDICTIONARY
360
143
102
}
102
{ACAD_REACTORS
330
1A
102
}
330
1A
100
AcDbPlotSettings
  1

  2
EPSON Stylus COLOR 3000
  4

  6

 40
0.0
 41
0.0
 42
0.0
 43
0.0
 44
0.0
 45
0.0
 46
0.0
 47
0.0
 48
0.0
 49
0.0
140
0.0
141
0.0
142
1.0
143
1.0
 70
   688
 72
     0
 73
     0
 74
     5
  7

 75
    16
147
1.0
148
0.0
149
0.0
100
AcDbLayout
  1
Layout1
 70
     1
 71
     1
 10
0.0
 20
0.0
 11
12.0
 21
9.0
 12
0.0
 22
0.0
 32
0.0
 14
1.000000000000000E+20
 24
1.000000000000000E+20
 34
1.000000000000000E+20
 15
-1.000000000000000E+20
 25
-1.000000000000000E+20
 35
-1.000000000000000E+20
146
0.0
 13
0.0
 23
0.0
 33
0.0
 16
1.0
 26
0.0
 36
0.0
 17
0.0
 27
1.0
 37
0.0
 76
     0
330
1B
  0
LAYOUT
  5
26
102
{ACAD_XDICTIONARY
360
147
102
}
102
{ACAD_REACTORS
330
1A
102
}
330
1A
100
AcDbPlotSettings
  1

  2
EPSON Stylus COLOR 3000
  4

  6

 40
0.0
 41
0.0
 42
0.0
 43
0.0
 44
0.0
 45
0.0
 46
0.0
 47
0.0
 48
0.0
 49
0.0
140
0.0
141
0.0
142
1.0
143
1.0
 70
   688
 72
     0
 73
     0
 74
     5
  7

 75
    16
147
1.0
148
0.0
149
0.0
100
AcDbLayout
  1
Layout2
 70
     1
 71
     2
 10
0.0
 20
0.0
 11
12.0
 21
9.0
 12
0.0
 22
0.0
 32
0.0
 14
0.0
 24
0.0
 34
0.0
 15
0.0
 25
0.0
 35
0.0
146
0.0
 13
0.0
 23
0.0
 33
0.0
 16
1.0
 26
0.0
 36
0.0
 17
0.0
 27
1.0
 37
0.0
 76
     0
330
23
  0
LAYOUT
  5
22
102
{ACAD_XDICTIONARY
360
145
102
}
102
{ACAD_REACTORS
330
1A
102
}
330
1A
100
AcDbPlotSettings
  1

  2
EPSON Stylus COLOR 3000
  4

  6

 40
0.0
 41
0.0
 42
0.0
 43
0.0
 44
0.0
 45
0.0
 46
0.0
 47
0.0
 48
0.0
 49
0.0
140
0.0
141
0.0
142
1.0
143
1.0
 70
  1712
 72
     0
 73
     0
 74
     0
  7

 75
     0
147
1.0
148
0.0
149
0.0
100
AcDbLayout
  1
Model
 70
     1
 71
     0
 10
0.0
 20
0.0
 11
12.0
 21
9.0
 12
0.0
 22
0.0
 32
0.0
 14
0.0
 24
0.0
 34
0.0
 15
0.0
 25
0.0
 35
0.0
146
0.0
 13
0.0
 23
0.0
 33
0.0
 16
1.0
 26
0.0
 36
0.0
 17
0.0
 27
1.0
 37
0.0
 76
     0
330
1F
  0
MLINESTYLE
  5
18
102
{ACAD_REACTORS
330
17
102
}
330
17
100
AcDbMlineStyle
  2
STANDARD
 70
     0
  3

 62
   256
 51
90.0
 52
90.0
 71
     2
 49
0.5
 62
   256
  6
BYLAYER
 49
-0.5
 62
   256
  6
BYLAYER
  0
ACDBPLACEHOLDER
  5
F
102
{ACAD_REACTORS
330
E
102
}
330
E
  0
TABLESTYLE
  5
B4
102
{ACAD_REACTORS
330
B3
102
}
330
B3
100
AcDbTableStyle
  3
Standard
 70
     0
 71
     0
 40
0.06
 41
0.06
280
     0
281
     0
  7
Standard
140
0.18
170
     2
 62
     0
 63
     7
283
     0
274
    -2
284
     1
 64
     0
275
    -2
285
     1
 65
     0
276
    -2
286
     1
 66
     0
277
    -2
287
     1
 67
     0
278
    -2
288
     1
 68
     0
279
    -2
289
     1
 69
     0
  7
Standard
140
0.25
170
     5
 62
     0
 63
     7
283
     0
274
    -2
284
     1
 64
     0
275
    -2
285
     1
 65
     0
276
    -2
286
     1
 66
     0
277
    -2
287
     1
 67
     0
278
    -2
288
     1
 68
     0
279
    -2
289
     1
 69
     0
  7
Standard
140
0.18
170
     5
 62
     0
 63
     7
283
     0
274
    -2
284
     1
 64
     0
275
    -2
285
     1
 65
     0
276
    -2
286
     1
 66
     0
277
    -2
287
     1
 67
     0
278
    -2
288
     1
 68
     0
279
    -2
289
     1
 69
     0
  0
DICTIONARYVAR
  5
13E
102
{ACAD_REACTORS
330
13D
102
}
330
13D
100
DictionaryVariables
280
     0
  1
STANDARD
  0
DICTIONARYVAR
  5
13F
102
{ACAD_REACTORS
330
13D
102
}
330
13D
100
DictionaryVariables
280
     0
  1
1
  0
DICTIONARYVAR
  5
140
102
{ACAD_REACTORS
330
13D
102
}
330
13D
100
DictionaryVariables
280
     0
  1

  0
DICTIONARY
  5
143
330
1E
100
AcDbDictionary
280
     1
281
     1
  3
ACAD_XREC_ROUNDTRIP
360
144
  0
DICTIONARY
  5
147
330
26
100
AcDbDictionary
280
     1
281
     1
  3
ACAD_XREC_ROUNDTRIP
360
148
  0
DICTIONARY
  5
145
330
22
100
AcDbDictionary
280
     1
281
     1
  3
ACAD_XREC_ROUNDTRIP
360
146
  0
XRECORD
  5
144
102
{ACAD_REACTORS
330
143
102
}
330
143
100
AcDbXrecord
280
     1
102
SHADEPLOT
 70
     0
102
SHADEPLOTRESLEVEL
 70
     2
102
SHADEPLOTCUSTOMDPI
 70
   300
  0
XRECORD
  5
148
102
{ACAD_REACTORS
330
147
102
}
330
147
100
AcDbXrecord
280
     1
102
SHADEPLOT
 70
     0
102
SHADEPLOTRESLEVEL
 70
     2
102
SHADEPLOTCUSTOMDPI
 70
   300
  0
XRECORD
  5
146
102
{ACAD_REACTORS
330
145
102
}
330
145
100
AcDbXrecord
280
     1
102
SHADEPLOT
 70
     0
102
SHADEPLOTRESLEVEL
 70
     2
102
SHADEPLOTCUSTOMDPI
 70
   300
  0
ENDSEC
  0
EOF
